<?xml version="1.0" standalone="no"?>
<!DOCTYPE svg PUBLIC "-//W3C//DTD SVG 1.1//EN" "http://www.w3.org/Graphics/SVG/1.1/DTD/svg11.dtd" >
<svg xmlns="http://www.w3.org/2000/svg">
<metadata>Generated by IcoMoon</metadata>
<defs>
<font id="Bed-and-Breakfast" horiz-adv-x="1024">
<font-face units-per-em="1024" ascent="960" descent="-64" />
<missing-glyph horiz-adv-x="1024" />
<glyph unicode="&#x20;" horiz-adv-x="512" d="" />
<glyph unicode="&#xe900;" glyph-name="tv" d="M1024 753.588h-379.055l159.411 159.411-42.592 42.59-202.003-202.001h-95.521l-202.003 202.001-42.59-42.592 159.409-159.411h-379.055v-752.941h120.471v-60.235h60.235v60.235h662.588v-60.235h60.235v60.235h120.471zM963.765 60.882h-903.529v632.471h903.529zM783.059 633.117h-662.588v-512h662.588zM421.647 572.882h60.235v-391.529h-60.235zM361.412 181.352h-60.235v391.529h60.235zM542.118 572.882h60.235v-391.529h-60.235zM180.706 572.882h60.235v-391.529h-60.235zM722.824 181.352h-60.235v391.529h60.235zM843.294 181.352h60.235v-60.235h-60.235zM843.294 301.823h60.235v-60.235h-60.235z" />
<glyph unicode="&#xe901;" glyph-name="steam-iron" d="M1023.865 297.412c-2.785 127.532-53.746 247.013-144.239 337.508-93.102 93.1-216.885 144.374-348.552 144.374h-380.486v-60.235h-150.588v-180.706h150.588v-77.878l-90.353-90.353v-132.945h120.471c33.214 0 60.235-27.022 60.235-60.235 0-6.867-1.157-13.623-3.439-20.078l-14.197-40.157h800.696v180.706zM60.235 598.588v60.235h90.353v-60.235zM180.706 297.412h-60.235v47.761l90.353 90.353v283.534h320.251c234.888 0 426.663-188.153 432.552-421.647zM963.765 176.941h-662.588c0 21.926-5.889 42.506-16.167 60.235h678.755zM572.235 658.824h-301.176v-180.706h301.176c49.821 0 90.353 40.532 90.353 90.353s-40.532 90.353-90.353 90.353zM572.235 538.353h-240.941v60.235h240.941c16.607 0 30.118-13.511 30.118-30.118s-13.511-30.118-30.118-30.118zM813.176 417.882h60.235v-60.235h-60.235zM692.706 417.882h60.235v-60.235h-60.235zM572.235 417.882h60.235v-60.235h-60.235z" />
<glyph unicode="&#xe902;" glyph-name="washing-machine" d="M60.235 960v-1024h903.529v1024zM903.529 719.059h-301.176v180.706h301.176zM542.118 719.059h-421.647v60.235h421.647zM542.118 899.765v-60.235h-421.647v60.235zM120.471-3.765v662.588h783.059v-662.588zM783.059 839.529h60.235v-60.235h-60.235zM662.588 839.529h60.235v-60.235h-60.235zM512 598.588c-149.462 0-271.059-121.597-271.059-271.059s121.597-271.059 271.059-271.059 271.059 121.595 271.059 271.059-121.597 271.059-271.059 271.059zM512 116.706c-116.248 0-210.824 94.575-210.824 210.824s94.575 210.824 210.824 210.824 210.824-94.575 210.824-210.824-94.575-210.824-210.824-210.824zM512 478.118c-83.034 0-150.588-67.554-150.588-150.588s67.554-150.588 150.588-150.588 150.588 67.554 150.588 150.588-67.554 150.588-150.588 150.588zM512 417.882c39.263 0 72.738-25.182 85.173-60.235h-170.345c12.433 35.053 45.909 60.235 85.173 60.235zM512 237.176c-39.263 0-72.74 25.182-85.173 60.235h170.345c-12.435-35.053-45.909-60.235-85.173-60.235z" />
<glyph unicode="&#xe903;" glyph-name="bed" d="M843.294 417.882v-76.258c-31.995 28.672-74.228 46.14-120.471 46.14h-431.126c6.066 13.147 9.479 27.764 9.479 43.169v64.251c0 57.019-46.387 103.404-103.404 103.404h-17.067v60.235h-180.706v-692.706h180.706v60.235h662.588v-60.235h180.706v451.765zM120.471 26.353h-60.235v572.235h60.235zM180.706 538.353h17.067c23.803 0 43.169-19.366 43.169-43.169v-64.251c0-23.803-19.366-43.169-43.169-43.169h-17.067zM180.706 327.529h542.118c56.031 0 103.253-38.45 116.66-90.353h-658.777zM843.294 86.588h-662.588v90.353h662.588zM963.765 26.353h-60.235c0 37.513 0 296.982 0 331.294h60.235zM722.824 598.588h-122.169l122.169 73.3v77.288h-210.824v-60.235h122.169l-122.169-73.3v-77.288h210.824zM993.882 779.294h-122.169l122.169 73.3v77.288h-210.824v-60.235h122.169l-122.169-73.3v-77.288h210.824z" />
<glyph unicode="&#xe904;" glyph-name="swimming-pool" d="M1024 809.412v45.176c0 58.125-47.289 105.412-105.412 105.412s-105.412-47.287-105.412-105.412v-135.529h-240.941v135.529c0 24.911 20.267 45.176 45.176 45.176s45.176-20.265 45.176-45.176v-45.176h60.235v45.176c0 58.125-47.289 105.412-105.412 105.412s-105.412-47.287-105.412-105.412v-406.588c-0.006 0-0.010 0-0.016 0-39.235 0-60.141-13.938-76.941-25.138-13.565-9.045-22.528-15.019-43.524-15.019-20.998 0-29.961 5.975-43.528 15.019-16.798 11.198-37.703 25.138-76.941 25.138-39.235 0-60.141-13.936-76.939-25.136-13.567-9.045-22.532-15.021-43.53-15.021s-29.961 5.975-43.528 15.019c-16.798 11.202-37.701 25.138-76.937 25.138h-30.118v-512h1024v512h-30.118c-39.237 0-60.145-13.936-76.945-25.136-13.567-9.045-22.53-15.019-43.526-15.021v446.745c0 24.911 20.267 45.176 45.176 45.176s45.176-20.265 45.176-45.176v-45.176zM813.176 658.824v-90.353h-240.941v90.353zM572.235 508.235h240.941v-74.971c-14.372 7.923-32.828 14.736-60.251 14.736-39.237 0-60.145-13.936-76.943-25.138-13.567-9.045-22.532-15.019-43.53-15.019-29.254 0-35.886 12.001-60.217 25.419zM60.235 230.462c19.795-10.397 39.898-33.443 90.347-33.443 39.237 0 60.143 13.938 76.941 25.138 13.567 9.043 22.53 15.019 43.528 15.019s29.963-5.975 43.53-15.021c16.798-11.2 37.703-25.136 76.939-25.136s60.141 13.936 76.937 25.138c13.567 9.043 22.53 15.019 43.528 15.019s29.961-5.975 43.528-15.019c16.798-11.2 37.703-25.138 76.941-25.138 39.235 0 60.143 13.936 76.941 25.136 13.569 9.045 22.532 15.021 43.532 15.021 21.002 0 29.965-5.975 43.534-15.021 16.8-11.2 37.707-25.136 76.945-25.136 50.475 0 70.62 23.084 90.361 33.445v-76.8c-20.996-4.763-34.955-14.023-46.827-21.938-13.569-9.045-22.532-15.021-43.534-15.021s-29.965 5.975-43.534 15.021c-16.8 11.2-37.707 25.136-76.945 25.136s-60.145-13.936-76.943-25.138c-13.567-9.043-22.532-15.019-43.53-15.019s-29.963 5.975-43.53 15.021c-16.798 11.2-37.703 25.136-76.939 25.136s-60.141-13.938-76.941-25.138c-13.565-9.043-22.528-15.019-43.524-15.019-20.998 0-29.961 5.975-43.528 15.019-16.798 11.2-37.703 25.138-76.941 25.138-39.235 0-60.141-13.936-76.939-25.136-13.567-9.045-22.532-15.021-43.53-15.021s-29.961 5.975-43.528 15.019c-11.87 7.915-25.827 17.173-46.819 21.938zM60.235-3.765v93.678c19.795-10.397 39.898-33.443 90.347-33.443 39.237 0 60.143 13.938 76.941 25.138 13.567 9.043 22.53 15.019 43.528 15.019s29.963-5.975 43.53-15.021c16.798-11.2 37.703-25.136 76.939-25.136s60.141 13.936 76.937 25.138c13.567 9.043 22.53 15.019 43.528 15.019s29.961-5.975 43.528-15.019c16.798-11.2 37.703-25.138 76.941-25.138 39.235 0 60.143 13.936 76.941 25.136 13.569 9.045 22.532 15.021 43.532 15.021 21.002 0 29.965-5.975 43.534-15.021 16.8-11.2 37.707-25.136 76.945-25.136 50.463 0 70.594 23.068 90.361 33.447v-93.682zM963.765 381.067v-86.853c-20.996-4.763-34.955-14.023-46.827-21.936-13.569-9.047-22.532-15.021-43.534-15.021s-29.965 5.975-43.534 15.021c-16.8 11.198-37.707 25.136-76.945 25.136s-60.145-13.936-76.943-25.138c-13.567-9.045-22.532-15.019-43.53-15.019s-29.963 5.975-43.53 15.021c-16.798 11.198-37.703 25.134-76.939 25.134s-60.141-13.938-76.941-25.138c-13.565-9.045-22.528-15.019-43.524-15.019-20.998 0-29.961 5.975-43.528 15.019-16.798 11.198-37.703 25.138-76.941 25.138-39.235 0-60.141-13.936-76.939-25.136-13.567-9.045-22.532-15.021-43.53-15.021s-29.961 5.975-43.528 15.019c-11.87 7.915-25.827 17.173-46.819 21.938v86.851c19.621-10.306 39.862-33.455 90.347-33.455 39.237 0 60.143 13.938 76.941 25.138 13.567 9.043 22.53 15.019 43.528 15.019s29.963-5.975 43.53-15.021c16.798-11.2 37.703-25.136 76.939-25.136s60.141 13.936 76.937 25.138c13.567 9.043 22.53 15.019 43.528 15.019s29.961-5.975 43.528-15.019c16.798-11.2 37.703-25.138 76.941-25.138 39.235 0 60.143 13.936 76.941 25.136 13.569 9.045 22.532 15.021 43.532 15.021 21.002 0 29.965-5.975 43.534-15.021 16.8-11.2 37.707-25.136 76.945-25.136 50.485 0 70.73 23.152 90.361 33.459z" />
<glyph unicode="&#xe905;" glyph-name="cutlery" d="M1024 749.176c0 116.248-94.575 210.824-210.824 210.824h-30.118v-541.118l-32.192-482.882h245.089l-30.118 451.765h58.161zM815.251-3.765l18.071 271.059h80.181l18.071-271.059zM909.487 327.529h-72.15l4.016 60.235h64.118zM843.294 448v448.739c68.65-13.993 120.471-74.84 120.471-147.562v-301.176c-39 0-59.233 0-120.471 0zM74.234 960l-74.234-111.351v-370.531h58.517l-30.118-542.118h244.381l-30.118 542.118h58.515v370.531l-74.234 111.351zM92.072-3.765l20.078 361.412h76.874l20.078-361.412zM185.679 417.882h-70.182l3.347 60.235h63.488zM240.941 538.353c-13.924 0-44.132 0-60.235 0v240.941h-60.235v-240.941c-16.237 0-46.522 0-60.235 0v292.059l46.237 69.353h88.233l46.237-69.353zM542.118 960c-99.641 0-180.706-81.065-180.706-180.706v-120.471c0-66.329 35.93-124.416 89.341-155.849l-30.784-566.975h244.3l-30.784 566.975c53.409 31.433 89.339 89.52 89.339 155.849v120.471c0 99.641-81.065 180.706-180.706 180.706zM483.561-3.765l19.623 361.412h77.864l19.623-361.412zM577.779 417.882h-71.323l3.427 63.119c20.58-3.721 42.532-3.965 64.468 0zM662.588 658.824c0-66.427-54.043-120.471-120.471-120.471s-120.471 54.043-120.471 120.471v120.471c0 66.427 54.043 120.471 120.471 120.471s120.471-54.043 120.471-120.471z" />
<glyph unicode="&#xe906;" glyph-name="reception-bell" d="M993.882 176.941v30.118c0 239.977-173.321 432.273-391.529 473.443v98.792h60.235v60.235c-35.23 0-269.186 0-301.176 0v-60.235h60.235v-98.792c-218.238-41.175-391.529-233.492-391.529-473.443v-30.118h90.353v-62.809c-51.573-11.097-90.353-57.033-90.353-111.873v-66.259h963.765v66.259c0 54.84-38.781 100.776-90.353 111.873v62.809zM481.882 779.294h60.235v-91.311c-20.799 1.275-39.428 1.275-60.235 0zM91.417 237.176c15.503 218.485 198.218 391.529 420.583 391.529s405.080-173.044 420.583-391.529c-103.563 0-737.531 0-841.166 0zM933.647 2.259v-6.024h-843.294v6.024c0 29.893 24.319 54.212 54.212 54.212h734.871c29.893 0 54.212-24.319 54.212-54.212zM843.294 116.706h-662.588v60.235h662.588zM240.941 749.176c0 16.607 13.511 30.118 30.118 30.118v60.235c-49.821 0-90.353-40.532-90.353-90.353zM271.059 899.765v60.235c-116.248 0-210.824-94.575-210.824-210.824h60.235c0 83.034 67.554 150.588 150.588 150.588zM783.059 749.176h60.235c0 49.821-40.532 90.353-90.353 90.353v-60.235c16.607 0 30.118-13.511 30.118-30.118zM903.529 749.176h60.235c0 116.248-94.575 210.824-210.824 210.824v-60.235c83.034 0 150.588-67.554 150.588-150.588z" />
<glyph unicode="&#xe907;" glyph-name="shower-head" d="M933.647 598.588c-10.559 0-20.693-1.837-30.118-5.18v366.592h-662.588v-240.941h-90.353v-120.471h-150.588v-180.706h662.588v180.706h-150.588v120.471h-90.353v60.235h301.176v-843.294h180.706v487.063c9.425-3.343 19.558-5.18 30.118-5.18 49.821 0 90.353 40.532 90.353 90.353s-40.532 90.353-90.353 90.353zM602.353 538.353v-60.235h-542.118v60.235zM451.765 598.588h-240.941v60.235h240.941zM361.412 839.529v-120.471h-60.235v180.706h542.118v-602.353h-60.235v542.118zM783.059 237.176h60.235v-90.353h-60.235zM783.059-3.765v90.353h60.235v-90.353zM933.647 478.118c-16.609 0-30.118 13.511-30.118 30.118s13.509 30.118 30.118 30.118c16.607 0 30.118-13.511 30.118-30.118s-13.511-30.118-30.118-30.118zM60.235 357.647h60.235v-90.353h-60.235zM180.706 357.647h60.235v-90.353h-60.235zM301.176 357.647h60.235v-90.353h-60.235zM421.647 357.647h60.235v-90.353h-60.235zM542.118 357.647h60.235v-90.353h-60.235zM60.235 207.059h60.235v-90.353h-60.235zM180.706 207.059h60.235v-90.353h-60.235zM301.176 207.059h60.235v-90.353h-60.235zM421.647 207.059h60.235v-90.353h-60.235zM542.118 207.059h60.235v-90.353h-60.235zM60.235 56.471h60.235v-90.353h-60.235zM180.706 56.471h60.235v-90.353h-60.235zM301.176 56.471h60.235v-90.353h-60.235zM421.647 56.471h60.235v-90.353h-60.235zM542.118 56.471h60.235v-90.353h-60.235z" />
<glyph unicode="&#xe908;" glyph-name="fireplace" d="M1024 839.529h-131.976l-60.235 120.471h-639.58l-60.235-120.471h-131.974v-210.824h60.235v-331.294h60.235v-150.588h-60.235v-210.824h903.529v210.824h-60.235v150.588h60.235v331.294h60.235zM229.436 899.765h565.126l30.118-60.235h-625.361zM341.839 628.706c-46.536-37.633-80.414-90.317-94.144-150.588h-127.225v150.588zM120.471 357.647v60.235h120.471v-60.235zM180.706 297.412h60.235v-150.588h-60.235zM240.941-3.765h-120.471v90.353h120.471zM421.647-3.765v60.235h180.706v-60.235zM722.824-3.765h-60.235v120.471c-20.335 0-280.837 0-301.176 0v-120.471h-60.235c0 9.726 0 409.393 0 421.647 0 116.248 94.573 210.824 210.824 210.824s210.824-94.575 210.824-210.824v-271.059zM903.529-3.765h-120.471v90.353h120.471zM843.294 146.824h-60.235v150.588h60.235zM783.059 357.647v60.235h120.471v-60.235zM903.529 478.118h-127.225c-13.73 60.271-47.608 112.955-94.144 150.588h221.369zM963.765 688.941h-903.529v90.353h903.529zM632.471 237.176c0 27.517-16.631 64.018-50.843 111.592-23.271 32.358-46.245 58.035-47.212 59.111l-22.416 24.98-22.416-24.98c-0.966-1.078-23.942-26.755-47.212-59.111-34.212-47.574-50.843-84.074-50.843-111.592 0-66.427 54.043-120.471 120.471-120.471s120.471 54.043 120.471 120.471zM512 176.941c-33.214 0-60.235 27.022-60.235 60.235 0 19.195 28.301 64.022 60.223 103.94 32.007-40.135 60.247-85.283 60.247-103.94 0-33.214-27.022-60.235-60.235-60.235z" />
<glyph unicode="&#xe909;" glyph-name="infusion" d="M813.176 373.288l150.588 120.471v225.3h-628.332c11.206 34.9 43.962 60.235 82.536 60.235h214.502c49.823 0 90.353 40.532 90.353 90.353s-40.53 90.353-90.353 90.353h-120.471v-60.235h120.471c16.609 0 30.118-13.511 30.118-30.118s-13.509-30.118-30.118-30.118h-214.504c-71.979 0-131.986-52.045-144.478-120.471h-62.665v-493.929c0-41.257 14.914-79.083 39.605-108.424h-190.193v-60.235h71.738l60.235-120.471h639.58l60.235 120.471h71.74v60.235h-190.191c24.688 29.341 39.603 67.166 39.603 108.424zM813.176 658.824h90.353v-136.112l-90.353-72.282zM752.941 568.471h-120.471v90.353h120.471zM271.059 658.824h301.176v-90.353h-301.176zM794.562-3.765h-565.124l-30.118 60.235h625.359zM379.482 116.706c-59.784 0-108.424 48.638-108.424 108.424v283.106h301.176v-90.353h-60.235v-180.706h180.706v180.706h-60.235v90.353h120.471v-283.106c0-59.786-48.64-108.424-108.424-108.424zM632.471 357.647v-60.235h-60.235v60.235z" />
<glyph unicode="&#xe90a;" glyph-name="toaster" d="M1024 448.755v60.235h-60.235v120.471h-120.471v129.126c36.003 17.145 60.235 53.981 60.235 95.246 0 58.123-47.287 105.412-105.412 105.412h-572.235c-58.125 0-105.412-47.287-105.412-105.412 0-41.265 24.233-78.099 60.235-95.246v-129.126h-120.471v-120.471h-60.235v-60.235h60.235v-271.059h-60.235v-180.706h90.353v-60.235h60.235v60.235h722.824v-60.235h60.235v60.235h90.353v180.706h-60.235v271.059zM216.815 809.564c-20.924 4.247-36.109 22.865-36.109 44.271 0 24.909 20.265 45.176 45.176 45.176h572.235c24.911 0 45.176-20.265 45.176-45.176 0-21.404-15.187-40.022-36.109-44.269l-24.126-4.899v-175.206h-120.471v179.196h-60.235v-179.196h-180.706v179.196h-60.235v-179.196h-120.471v175.206zM963.765 57.226h-903.529v60.235h903.529zM120.471 177.696v391.529h783.059v-391.529zM180.706 508.99h60.235v-60.235h-60.235zM180.706 388.52h60.235v-60.235h-60.235zM752.941 418.637c-49.821 0-90.353-40.532-90.353-90.353s40.532-90.353 90.353-90.353 90.353 40.532 90.353 90.353-40.532 90.353-90.353 90.353zM752.941 298.167c-16.607 0-30.118 13.511-30.118 30.118s13.511 30.118 30.118 30.118 30.118-13.511 30.118-30.118-13.511-30.118-30.118-30.118z" />
<glyph unicode="&#xe90b;" glyph-name="bunk-bed" d="M843.294 779.294v-90.353h-394.559c-13.991 68.652-74.836 120.471-147.558 120.471h-120.471v150.588h-180.706v-1024h180.706v90.353h331.294v-90.353h60.235v90.353h150.588v-90.353h60.235v90.353h60.235v-90.353h180.706v843.294zM448.735 237.176c-13.991 68.652-74.836 120.471-147.558 120.471h-120.471v120.471h331.294v-240.941zM180.706 297.412h120.471c39.265 0 72.762-25.176 85.193-60.235h-205.663zM180.706 628.706h331.294v-90.353h-331.294zM722.824 327.529h-150.588v60.235h150.588zM722.824 448h-150.588v60.235h150.588zM722.824 568.471h-150.588v60.235h150.588zM572.235 267.294h150.588v-60.235h-150.588zM783.059 478.118h60.235v-240.941h-60.235zM843.294 538.353h-60.235v90.353h60.235zM301.176 749.176c39.265 0 72.762-25.176 85.193-60.235h-205.663v60.235zM120.471-3.765h-60.235v903.529h60.235zM180.706 86.588v90.353h331.294v-90.353zM572.235 86.588v60.235h150.588v-60.235zM783.059 86.588v90.353h60.235v-90.353zM963.765-3.765h-60.235c0 34.286 0 698.836 0 722.824h60.235z" />
<glyph unicode="&#xe90c;" glyph-name="birthday-cake" d="M933.647 297.412v421.647h-331.294v180.706h-60.235v60.235h-60.235v-60.235h-60.235v-180.706h-331.294v-421.647h-90.353v-30.118c0-83.034 67.554-150.588 150.588-150.588h240.941v-120.471h-90.353v-60.235h421.647v60.235h-90.353v120.471h240.941c83.034 0 150.588 67.554 150.588 150.588v30.118zM150.588 488.631c3.67-0.285 7.405-0.474 11.288-0.474 38.539 0 58.992 14.075 75.427 25.387 12.924 8.895 21.464 14.77 41.279 14.77 19.813 0 28.353-5.877 41.279-14.77 16.432-11.312 36.886-25.387 75.425-25.387 38.537 0 58.988 14.075 75.423 25.387 12.924 8.895 21.462 14.77 41.275 14.77 19.815 0 28.353-5.877 41.279-14.772 16.434-11.31 36.888-25.385 75.425-25.385 38.539 0 58.994 14.075 75.429 25.387 12.926 8.895 21.464 14.77 41.279 14.77 19.817 0 28.357-5.877 41.283-14.772 16.436-11.31 36.892-25.385 75.431-25.385 3.891 0 7.63 0.191 11.302 0.474v-70.748h-722.824zM481.882 839.529h60.235v-120.471h-60.235zM421.647 658.824h451.765v-109.654c-3.253-0.486-6.975-0.777-11.302-0.777-19.817 0-28.357 5.877-41.283 14.772-16.436 11.31-36.892 25.385-75.431 25.385-38.537 0-58.992-14.075-75.425-25.385-12.929-8.895-21.466-14.772-41.283-14.772-19.813 0-28.351 5.877-41.277 14.77-16.434 11.312-36.888 25.387-75.427 25.387-38.537 0-58.99-14.077-75.425-25.387-12.924-8.895-21.462-14.77-41.275-14.77s-28.353 5.877-41.277 14.77c-16.434 11.312-36.888 25.387-75.425 25.387s-58.99-14.075-75.425-25.385c-12.926-8.895-21.464-14.772-41.279-14.772-4.321 0-8.039 0.289-11.288 0.775v109.656zM150.588 357.647h722.824v-60.235h-722.824zM572.235-3.765h-120.471v120.471h120.471zM873.412 176.941h-722.824c-39.265 0-72.762 25.176-85.193 60.235h893.209c-12.431-35.059-45.925-60.235-85.193-60.235z" />
<glyph unicode="&#xe90d;" glyph-name="living-room" d="M602.353 417.8v210.906h-481.882v-210.906c-25.186 18.95-56.479 30.2-90.353 30.2h-30.118v-391.529h60.235v-60.235h60.235v60.235h481.882v-60.235h60.235v60.235h60.235v391.529h-30.118c-33.874 0-65.167-11.25-90.353-30.2zM542.118 568.471v-241.023c-25.186 18.95-56.479 30.2-90.353 30.2h-180.706c-33.874 0-65.167-11.25-90.353-30.2v241.023zM536.957 237.176h-351.091c12.429 35.059 45.925 60.235 85.193 60.235h180.706c39.267 0 72.762-25.176 85.193-60.235zM60.235 116.706v265.899c35.059-12.431 60.235-45.925 60.235-85.193v-180.706zM180.706 116.706v60.235h361.412v-60.235c-44.757 0-315.755 0-361.412 0zM662.588 116.706h-60.235c0 60.466 0 112.887 0 180.706 0 39.265 25.176 72.762 60.235 85.193zM271.059 508.235h60.235v-60.235h-60.235zM391.529 508.235h60.235v-60.235h-60.235zM1024 568.471v331.294h-301.176v-331.294h120.471v-512h-60.235v-60.235h180.706v60.235h-60.235v512zM783.059 839.529h180.706v-210.824h-180.706z" />
<glyph unicode="&#xe90e;" glyph-name="soap" d="M783.059 387.765c49.823 0 90.353 40.532 90.353 90.353s-40.53 90.353-90.353 90.353-90.353-40.532-90.353-90.353 40.53-90.353 90.353-90.353zM783.059 508.235c16.609 0 30.118-13.511 30.118-30.118s-13.509-30.118-30.118-30.118-30.118 13.511-30.118 30.118 13.509 30.118 30.118 30.118zM918.588 598.588c58.123 0 105.412 47.287 105.412 105.412s-47.289 105.412-105.412 105.412-105.412-47.287-105.412-105.412 47.289-105.412 105.412-105.412zM918.588 749.176c24.909 0 45.176-20.265 45.176-45.176s-20.267-45.176-45.176-45.176-45.176 20.265-45.176 45.176 20.267 45.176 45.176 45.176zM963.743 134.435c-0.675 42.723-17.729 83.109-48.022 113.722-30.296 30.618-70.505 48.090-113.218 49.198-24.678 0.638-48.542-4.028-70.947-13.878-24.69-10.852-53.011-10.852-77.702 0-22.406 9.848-46.231 14.517-70.947 13.878-37.209-0.968-72.513-14.362-101.025-38.037v459.74h-90.353v120.471h-60.235v60.235h134.471l51.294-76.941 50.116 33.411-69.176 103.765h-407.646v-60.235h60.235v-60.235h-60.235v-120.471h-90.353v-783.059h451.765v5.289c11.459-3.423 23.584-5.289 36.141-5.289h409.6c69.748 0 126.494 56.746 126.494 126.494v54.212h-60.948c0.528 5.869 0.785 11.778 0.691 17.729zM584.473 237.138c15.748 0.424 30.921-2.554 45.142-8.804 40.097-17.627 86.088-17.625 126.181 0 14.224 6.252 29.463 9.216 45.142 8.804 55.679-1.446 101.695-47.945 102.577-103.657 0.088-5.656-0.263-11.256-1.048-16.776h-419.523c-0.787 5.52-1.136 11.121-1.048 16.776 0.879 55.712 46.895 102.211 102.577 103.657zM210.824 899.765h60.235v-60.235h-60.235zM150.588 779.294h180.706v-60.235h-180.706zM60.235 538.353h180.706v-301.176h-180.706zM301.176 176.941v421.647h-240.941v60.235h361.412v-542.118h-361.412v60.235zM60.235 56.471h301.329c1.038-22.008 7.73-42.556 18.647-60.235h-319.976zM897.506-3.765h-409.6c-34.507 0-62.936 26.512-65.988 60.235h541.578c-3.054-33.724-31.485-60.235-65.99-60.235z" />
<glyph unicode="&#xe90f;" glyph-name="placeholder" d="M928.097 297.412h-248.824c63.687 83.211 164.145 227.093 164.145 331.294 0 182.676-148.619 331.294-331.294 331.294s-331.294-148.619-331.294-331.294c0-104.283 100.623-248.298 164.145-331.294h-246.664l-93.967-361.412h1015.312zM919.369 86.588l22.889-90.353h-98.838v90.353zM241.068 628.706c0 149.462 121.597 271.059 271.059 271.059s271.059-121.597 271.059-271.059c0-116.375-179.033-336.755-271.063-437.692-92.029 100.9-271.055 321.225-271.055 437.692zM97.904 56.471h264.638v60.235h-248.977l31.322 120.471h246.766v1.436c53.389-64.984 96.324-110.11 98.683-112.582l21.787-22.827 21.787 22.827c2.359 2.472 45.295 47.6 98.683 112.582v-1.436h248.623l22.889-90.353h-210.271v-60.235h89.349v-90.353h-700.942zM512.126 513.426l114.594-60.245-21.885 127.604 92.71 90.369-128.122 18.617-57.298 116.098-57.298-116.098-128.122-18.617 92.71-90.369-21.887-127.604zM494.829 634.713l17.298 35.047 17.298-35.047 38.677-5.62-27.987-27.281 6.606-38.522-34.593 18.187-34.595-18.187 6.608 38.522-27.987 27.281z" />
<glyph unicode="&#xe910;" glyph-name="suitcase" d="M813.176 719.059h-150.588v180.706h60.235v60.235c-20.849 0-400.782 0-421.647 0v-60.235h60.235v-180.706h-150.588v-722.824h60.235v-60.235h60.235v60.235h361.412v-60.235h60.235v60.235h60.235zM421.647 899.765h180.706v-180.706h-180.706zM632.471 417.882h-240.941v60.235h240.941zM481.882 538.353v120.471h60.235v-120.471zM271.059 658.824h150.588v-120.471h-90.353v-481.882h-60.235zM391.529 56.471v301.176h120.471v-60.235h60.235v60.235h60.235v-301.176zM752.941 56.471h-60.235v481.882h-90.353v120.471h150.588z" />
<glyph unicode="&#xe911;" glyph-name="electric-kettle" d="M610.131 538.353c0 49.821-40.53 90.353-90.353 90.353-49.821 0-90.353-40.532-90.353-90.353v-361.412h180.706zM519.778 568.471c16.607 0 30.118-13.511 30.118-30.118v-60.235h-60.235v60.235c0 16.607 13.511 30.118 30.118 30.118zM549.896 417.882v-60.235h-60.235v60.235zM489.661 237.176v60.235h60.235v-60.235zM278.837 237.176h60.235v-60.235h-60.235zM278.837 357.647h60.235v-60.235h-60.235zM926.367 116.706c-41.518 0-75.294-33.776-75.294-75.294 0-8.304-6.754-15.059-15.059-15.059h-45.176v90.353h-60.235v180.706h120.471v451.765h-120.471v210.824h-440.26l-60.235-120.471c-21.89 0-156.921 0-177.65 0l105.91-247.123v-475.7h-60.235v-180.706h692.706v30.118h45.176c41.518 0 75.294 33.776 75.294 75.294 0 8.304 6.754 15.059 15.059 15.059h45.176v60.235zM790.837 688.941v-331.294h-60.235v331.294zM327.57 899.765h342.797v-60.235h-372.915zM143.806 779.294h526.561v-662.588h-451.765v488.065zM730.602-3.765h-572.235v60.235h572.235z" />
<glyph unicode="&#xe912;" glyph-name="cottage" d="M1024 89.301v60.235h-60.235v60.235h-60.235v-60.235h-60.235v240.941h104.719l-84.329 210.824h-79.185l-121.91 355.987-121.912-355.985h-57.352l-121.912 355.985-121.912-355.985h-79.183l-84.329-210.824h104.719v-240.941h-60.235v60.235h-60.235v-60.235h-60.235v-60.235h60.235v-90.353h-60.235v-60.235h1024v60.235h-60.235v90.353h60.235zM180.706-1.052h-60.235v90.353h60.235zM662.588 771.371l58.244-170.070h-116.487zM361.412 771.371l58.244-170.070h-116.487zM572.235-1.052h-120.471v150.588h120.471zM783.059-1.052h-150.588v210.824h-240.941v-210.824h-150.588v271.059h542.118zM783.059 330.242h-542.118v60.235h542.118zM180.706 450.713h-15.752l36.141 90.353h621.807l36.141-90.353h-15.75zM903.529-1.052h-60.235v90.353h60.235z" />
<glyph unicode="&#xe913;" glyph-name="boiled-egg" d="M692.706 960c-113.614 0-201.071-116.569-251.904-218.206-33.884 23.608-70.636 37.5-109.508 37.5-191.392 0-331.294-336.733-331.294-512 0-182.676 148.619-331.294 331.294-331.294 130.911 0 244.322 76.33 298.090 186.816 204.782-39.697 394.615 117.499 394.615 325.184 0 175.267-139.902 512-331.294 512zM331.294-3.765c-149.462 0-271.059 121.595-271.059 271.059 0 165.92 133.943 451.765 271.059 451.765 144.101 0 266.748-296.434 270.864-441.25 5.538-157.692-120.84-281.574-270.864-281.574zM650.999 180.14c6.57 24.098 10.676 50.812 11.425 77.169 3.785 125.575-67.506 332.969-174.453 443.769 47.263 99.31 123.193 198.686 204.736 198.686 137.116 0 271.059-285.845 271.059-451.765 0-165.141-147.619-293.392-312.766-267.86zM331.294 448c-99.641 0-180.706-81.065-180.706-180.706s81.065-180.706 180.706-180.706 180.706 81.065 180.706 180.706-81.065 180.706-180.706 180.706zM331.294 146.824c-66.427 0-120.471 54.043-120.471 120.471s54.043 120.471 120.471 120.471 120.471-54.043 120.471-120.471-54.043-120.471-120.471-120.471zM301.176 297.412h60.235v-60.235h-60.235z" />
<glyph unicode="&#xe914;" glyph-name="hot-dog" d="M957.739 644.382l14.58 14.58c68.908 68.906 68.914 180.441 0 249.355-68.906 68.906-180.439 68.914-249.355 0l-14.58-14.58-0.892 0.892c-60.582 60.584-159.163 60.582-219.747 0l-422.374-422.372c-60.584-60.584-60.584-159.163 0-219.749l0.892-0.892-14.58-14.578c-68.906-68.906-68.914-180.441 0-249.355 68.906-68.908 180.441-68.914 249.355 0l14.58 14.58 0.892-0.892c60.582-60.584 159.161-60.586 219.747 0l422.374 422.374c60.584 60.584 60.584 159.163 0 219.747zM108.177 295.318c-36.98 36.982-36.98 97.152 0 134.132l422.374 422.374c36.982 36.982 97.152 36.982 134.132 0l0.894-0.892-556.506-556.508zM94.49 30.49c-45.142 45.145-45.142 118.597 0 163.74l671.279 671.279c45.142 45.14 118.595 45.145 163.74 0 45.142-45.145 45.142-118.597 0-163.74l-671.279-671.279c-45.145-45.142-118.595-45.142-163.74 0zM915.823 466.55l-422.374-422.374c-36.98-36.982-97.152-36.98-134.132 0l-0.892 0.892 556.506 556.506 0.892-0.892c36.98-36.982 36.98-97.152 0-134.132zM768.669 742.957c-6.71-20.131-12.011-36.031-35.499-59.519s-39.387-28.787-59.519-35.496c-23.243-7.749-49.588-16.529-83.18-50.123-33.592-33.592-42.372-59.934-50.121-83.178-6.71-20.129-12.009-36.029-35.494-59.515s-39.385-28.785-59.513-35.492c-23.243-7.747-49.586-16.527-83.178-50.119s-42.372-59.934-50.119-83.178c-6.71-20.129-12.009-36.029-35.494-59.515-23.485-23.483-39.383-28.785-59.513-35.492-23.243-7.747-49.586-16.527-83.178-50.119l42.808-42.808c23.485 23.485 39.385 28.785 59.515 35.494 23.243 7.747 49.586 16.527 83.176 50.119 33.592 33.592 42.372 59.936 50.121 83.178 6.71 20.129 12.009 36.029 35.492 59.513 23.485 23.485 39.385 28.785 59.513 35.494 23.243 7.747 49.586 16.527 83.178 50.119s42.372 59.934 50.121 83.178c6.71 20.129 12.009 36.029 35.496 59.515 23.487 23.487 39.387 28.789 59.517 35.499 23.243 7.749 49.588 16.529 83.18 50.123 33.594 33.592 42.376 59.936 50.123 83.18 6.71 20.131 12.011 36.031 35.499 59.519l-42.808 42.808c-33.594-33.596-42.374-59.94-50.123-83.184z" />
<glyph unicode="&#xe915;" glyph-name="alarm-clock" d="M1024 538.353h-131.974l-60.235 120.471h-639.582l-60.235-120.471h-131.974v-542.118h120.471v-60.235h60.235v60.235h662.588v-60.235h60.235v60.235h120.471zM229.438 598.588h565.126l30.118-60.235h-625.361zM963.765 56.471h-903.529v421.647h903.529zM120.471 116.706h180.706v180.706h-120.471v60.235h120.471v60.235h-180.706zM240.941 237.176v-60.235h-60.235v60.235zM481.882 116.706h180.706v301.176h-180.706zM542.118 357.647h60.235v-180.706h-60.235zM722.824 116.706h180.706v301.176h-180.706zM783.059 357.647h60.235v-180.706h-60.235zM361.412 207.059h60.235v-60.235h-60.235zM361.412 387.765h60.235v-60.235h-60.235zM421.647 749.176h60.235c0 16.607 13.511 30.118 30.118 30.118s30.118-13.511 30.118-30.118h60.235c0 49.821-40.532 90.353-90.353 90.353s-90.353-40.532-90.353-90.353zM512 899.765c83.034 0 150.588-67.554 150.588-150.588h60.235c0 116.248-94.575 210.824-210.824 210.824s-210.824-94.575-210.824-210.824h60.235c0 83.034 67.554 150.588 150.588 150.588z" />
<glyph unicode="&#xe916;" glyph-name="slippers" d="M1024 719.059c0 132.855-108.086 240.941-240.941 240.941s-240.941-108.086-240.941-240.941v-361.412h60.235v-240.941c0-99.641 81.065-180.706 180.706-180.706s180.706 81.065 180.706 180.706v240.941h60.235zM783.059 899.765c99.641 0 180.706-81.065 180.706-180.706v-87.283c-108.747 76.157-252.691 76.218-361.412 0v87.283c0 99.641 81.065 180.706 180.706 180.706zM903.529 116.706c0-66.427-54.043-120.471-120.471-120.471s-120.471 54.043-120.471 120.471v240.941h240.941zM602.353 417.882v135.429c97.228 98.087 259.684 102.932 361.412 0.024v-135.453zM240.941 960c-132.855 0-240.941-108.086-240.941-240.941v-361.412h60.235v-240.941c0-99.641 81.065-180.706 180.706-180.706s180.706 81.065 180.706 180.706v240.941h60.235v361.412c0 132.855-108.084 240.941-240.941 240.941zM361.412 116.706c0-66.427-54.043-120.471-120.471-120.471s-120.471 54.043-120.471 120.471v240.941h240.941zM60.235 417.882v135.427c97.224 98.089 259.684 102.932 361.412 0.024v-135.451zM421.647 631.776c-108.749 76.155-252.689 76.22-361.412 0v87.283c0 99.641 81.065 180.706 180.706 180.706s180.706-81.065 180.706-180.706z" />
<glyph unicode="&#xe917;" glyph-name="orange-juice" d="M662.588 597.205v362.795h-602.353v-1024h572.235c182.676 0 331.294 148.619 331.294 331.294 0 172.524-132.564 314.641-301.176 329.911zM602.353 899.765v-150.588h-481.882v150.588zM120.471-3.765v692.706h481.882v-91.736c-168.615-15.27-301.176-157.387-301.176-329.911 0-111.927 55.802-211.054 141.035-271.059zM632.471-3.765c-149.464 0-271.059 121.595-271.059 271.059s121.595 271.059 271.059 271.059 271.059-121.597 271.059-271.059-121.597-271.059-271.059-271.059zM632.471 478.118c-116.25 0-210.824-94.575-210.824-210.824s94.573-210.824 210.824-210.824 210.824 94.575 210.824 210.824-94.575 210.824-210.824 210.824zM775.278 219.62l-82.573 47.674 82.573 47.674c10.366-30.965 10.389-64.319 0-95.348zM489.661 314.968l82.575-47.674-82.575-47.674c-10.364 30.973-10.383 64.319 0 95.348zM745.103 367.098l-82.514-47.64v95.393c32.533-6.63 61.265-23.799 82.514-47.753zM602.353 414.853v-95.393l-82.514 47.64c21.249 23.952 49.981 41.121 82.514 47.753zM519.839 167.49l82.514 47.64v-95.393c-32.533 6.628-61.265 23.799-82.514 47.753zM662.588 119.736v95.393l82.514-47.64c-21.249-23.952-49.981-41.123-82.514-47.753z" />
<glyph unicode="&#xe918;" glyph-name="coffee-maker" d="M813.176 960h-752.941v-70.275c0-87.309 65.915-159.471 150.588-169.446v-121.691h90.353v-180.706c-73.865 0-119.318 0-150.588 0-49.821 0-90.353-40.532-90.353-90.353s40.532-90.353 90.353-90.353h30.118c0-34.105 11.413-65.586 30.598-90.859-84.347-6.285-151.068-76.872-151.068-162.798v-47.52h903.529c0 4.941 0 858.584 0 873.412 0 83.034-67.554 150.588-150.588 150.588zM271.059 719.059h120.471v-60.235h-120.471zM361.412 598.588h90.353v120.471h150.588v-572.235h-150.671c18.952 25.186 30.2 56.479 30.2 90.353v180.706h-120.471zM150.588 297.412c-16.607 0-30.118 13.511-30.118 30.118s13.511 30.118 30.118 30.118h30.118v-60.235zM240.941 357.647h180.706v-120.471c0-49.821-40.53-90.353-90.353-90.353s-90.353 40.532-90.353 90.353zM903.529-3.765h-782.278c6.285 50.855 49.76 90.353 102.288 90.353h679.99zM662.588 146.824v106.376c68.674-61.544 172.301-61.516 240.941 0v-106.376zM662.588 387.765c0 66.427 54.043 120.471 120.471 120.471s120.471-54.043 120.471-120.471-54.043-120.471-120.471-120.471-120.471 54.043-120.471 120.471zM903.529 522.33c-68.674 61.544-172.301 61.516-240.941 0v196.728h240.941zM230.902 779.294c-60.892 0-110.431 49.54-110.431 110.431v10.039h692.706c49.823 0 90.353-40.532 90.353-90.353v-30.118c-22.809 0-653.165 0-672.627 0zM752.941 417.882h60.235v-60.235h-60.235z" />
<glyph unicode="&#xe919;" glyph-name="air-conditioner" d="M0 869.647v-481.882h1024v481.882zM963.765 809.412v-60.235h-903.529v60.235zM783.059 448v60.235h-60.235v-60.235h-60.235v60.235h-60.235v-60.235h-421.647v64.251c0 30.999 25.221 56.22 56.22 56.22h550.149c31.001 0 56.22-25.221 56.22-56.22v-64.251zM903.529 448v64.251c0 64.213-52.242 116.455-116.455 116.455h-550.149c-64.213 0-116.455-52.242-116.455-116.455v-64.251h-60.235v240.941h903.529v-240.941zM240.941 297.412c0-49.823-40.532-90.353-90.353-90.353v-60.235c83.034 0 150.588 67.554 150.588 150.588zM150.588 86.588v-60.235c149.462 0 271.059 121.595 271.059 271.059h-60.235c0-116.248-94.575-210.824-210.824-210.824zM783.059 297.412h-60.235c0-83.034 67.554-150.588 150.588-150.588v60.235c-49.821 0-90.353 40.53-90.353 90.353zM662.588 297.412h-60.235c0-149.464 121.595-271.059 271.059-271.059v60.235c-116.248 0-210.824 94.575-210.824 210.824z" />
<glyph unicode="&#xe91a;" glyph-name="fried-egg" d="M602.353 960c-232.498 0-421.647-189.153-421.647-421.647 0-80.828 22.879-156.403 62.476-220.626l-187.274-136.202c-32.156-23.383-52.381-59.527-55.491-99.163s11.23-78.491 39.344-106.602c25.488-25.488 60.145-39.759 96.015-39.759 2.355 0 4.722 0.060 7.086 0.187 38.358 2.014 74.22 20.289 98.388 50.148l151.008 186.539c61.894-35.716 133.65-56.167 210.095-56.167 232.496 0 421.647 189.151 421.647 421.647s-189.151 421.647-421.647 421.647zM194.436 24.233c-13.641-16.85-33.077-26.757-54.73-27.893-21.669-1.13-42.020 6.68-57.352 22.012-15.637 15.637-23.614 37.252-21.883 59.298 1.731 22.048 12.979 42.153 30.867 55.161l186.856 135.897c19.070-22.928 40.436-43.695 63.886-62.093zM602.353 176.941c-199.282 0-361.412 162.129-361.412 361.412s162.127 361.412 361.412 361.412 361.412-162.129 361.412-361.412-162.129-361.412-361.412-361.412zM542.118 568.471c-49.821 0-90.353-40.53-90.353-90.353s40.532-90.353 90.353-90.353 90.353 40.53 90.353 90.353-40.532 90.353-90.353 90.353zM542.118 448c-16.607 0-30.118 13.511-30.118 30.118s13.511 30.118 30.118 30.118 30.118-13.511 30.118-30.118-13.511-30.118-30.118-30.118zM750.409 716.527c-12.997 69.903-74.445 123.002-148.056 123.002-83.034 0-150.588-67.554-150.588-150.588 0-6.618 0.434-13.202 1.297-19.727-31.363-14.701-59.141-37.187-79.952-65.054-27.357-36.629-41.815-80.213-41.815-126.042 0-116.25 94.575-210.824 210.824-210.824 50.174 0 98.788 17.93 136.885 50.487 31.461 26.887 54.244 62.372 65.636 101.679 72.732 10.599 128.773 73.385 128.773 149.010 0 73.614-53.097 135.060-123.002 148.056zM722.892 478.118l-0.548 0.016c-0.486 0.018-0.97 0.034-1.456 0.042l-25.979 0.488-4.291-25.628c-12.178-72.724-74.63-125.506-148.5-125.506-83.034 0-150.588 67.554-150.588 150.588 0 66.245 42.438 124.016 105.598 143.758l29.347 9.172-9.778 29.152c-3.116 9.292-4.696 18.962-4.696 28.742 0 49.821 40.532 90.353 90.353 90.353s90.353-40.532 90.353-90.353v-30.118h30.118c49.821 0 90.353-40.53 90.353-90.353s-40.532-90.353-90.285-90.353z" />
<glyph unicode="&#xe91b;" glyph-name="safebox" d="M1024 960h-1024v-963.765h90.353v-60.235h60.235v60.235h722.824v-60.235h60.235v60.235h90.353zM120.471 237.176h-60.235v60.235h60.235zM120.471 357.647h-60.235v240.941h60.235zM120.471 658.824h-60.235v60.235h60.235zM963.765 56.471h-903.529v120.471h60.235v-60.235h783.059v722.824h-783.059v-60.235h-60.235v120.471h903.529zM843.294 357.647h-196.728c61.542 68.668 61.52 172.301 0 240.941h196.728zM615.739 539.265c22.303-37.697 22.335-84.542 0-122.294l-61.147 61.147zM573.147 581.857l-61.147-61.147-61.147 61.147c37.695 22.303 84.54 22.335 122.294 0zM408.261 539.265l61.147-61.147-61.147-61.147c-22.305 37.701-22.335 84.542 0 122.294zM512 435.525l61.147-61.147c-37.695-22.301-84.542-22.337-122.294 0zM843.294 658.824h-331.294c-99.641 0-180.706-81.065-180.706-180.706s81.065-180.706 180.706-180.706h331.294v-120.471h-662.588v602.353h662.588z" />
<glyph unicode="&#xe91c;" glyph-name="cookies" d="M986.868 556.371c-6.767 29.772 5.472 74.544-13.485 113.838-19.185 39.77-62.079 58.183-80.639 81.422-18.713 23.431-27.116 69.215-61.489 96.662-34.336 27.418-80.597 25.365-107.91 38.544-26.616 12.842-54.076 50.575-97.422 60.428-42.291 9.609-83.040-12.297-113.921-12.297-30.918 0-71.642 21.906-113.921 12.297-43.344-9.853-70.815-47.594-97.42-60.428-27.249-13.144-73.659-11.192-107.91-38.542-21.432-17.112-32.749-41.337-42.735-62.713-15.694-33.6-18.514-37.049-47.507-59.546-18.699-14.512-39.895-30.96-51.89-55.825-18.971-39.328-6.718-84.068-13.487-113.84-6.489-28.544-37.13-63.62-37.13-108.374 0-44.744 30.658-79.903 37.132-108.372 6.765-29.764-5.474-74.544 13.485-113.84 19.185-39.77 62.079-58.183 80.639-81.422 18.713-23.431 27.116-69.215 61.489-96.662 21.337-17.037 47.422-22.705 70.436-27.703 36.476-7.925 40.432-9.96 68.507-32.957 18.388-15.065 39.232-32.14 66.39-38.312 42.219-9.593 83.15 12.297 113.921 12.297 30.787 0 71.739-21.886 113.921-12.297 27.158 6.174 47.999 23.245 66.388 38.31 28.054 22.985 32.003 25.028 68.51 32.959 23.013 4.998 49.098 10.664 70.434 27.701 21.432 17.112 32.749 41.339 42.735 62.717 15.696 33.6 18.512 37.043 47.505 59.54 18.701 14.514 39.897 30.964 51.892 55.827 18.959 39.3 6.72 84.072 13.487 113.84 6.491 28.544 37.132 63.62 37.132 108.374-0.002 44.742-30.662 79.905-37.134 108.374zM927.864 353.035c-8.572-37.713 1.668-78.885-8.979-100.964-10.932-22.656-49.516-40.018-73.427-69.958-24.030-30.095-32.406-71.523-51.96-87.134-19.474-15.549-61.472-14.455-96.446-31.329-34.453-16.62-59.681-50.272-84.538-55.922-23.723-5.387-61.236 13.802-100.512 13.802-39.332 0-76.757-19.201-100.512-13.802-24.921 5.664-49.937 39.228-84.538 55.922-34.786 16.781-77.053 15.841-96.448 31.331-19.74 15.76-27.672 56.714-51.96 87.132-24.246 30.369-62.374 47.045-73.427 69.96-10.664 22.106-0.381 63.142-8.977 100.962-8.447 37.144-35.629 69.048-35.629 94.962 0 26.027 27.13 57.592 35.627 94.964 8.566 37.676-1.67 78.885 8.979 100.962 10.93 22.654 49.52 40.018 73.423 69.958 24.034 30.095 32.408 71.521 51.965 87.134 19.474 15.549 61.474 14.455 96.446 31.329 16.303 7.864 29.919 19.020 43.086 29.806 14.502 11.882 28.199 23.102 41.452 26.113 23.703 5.393 61.236-13.802 100.512-13.802 39.312 0 76.785 19.203 100.51 13.802 24.919-5.664 49.937-39.226 84.54-55.922 34.786-16.781 77.053-15.841 96.448-31.331 19.74-15.76 27.672-56.714 51.96-87.132 24.248-30.369 62.374-47.045 73.427-69.96 10.68-22.14 0.365-63.068 8.977-100.962 8.447-37.144 35.627-69.048 35.627-94.962 0.002-26.025-27.128-57.592-35.625-94.96zM330.476 387.489c-50.048 0-90.762-40.714-90.762-90.762s40.714-90.762 90.762-90.762 90.762 40.714 90.762 90.762-40.716 90.762-90.762 90.762zM330.476 266.472c-16.684 0-30.254 13.57-30.254 30.254 0 16.682 13.57 30.254 30.254 30.254 16.682 0 30.254-13.572 30.254-30.254 0-16.684-13.572-30.254-30.254-30.254zM512.001 750.538c-66.729 0-121.017-54.288-121.017-121.017s54.288-121.017 121.017-121.017 121.017 54.288 121.017 121.017-54.288 121.017-121.017 121.017zM512.001 569.014c-33.364 0-60.508 27.144-60.508 60.508s27.144 60.508 60.508 60.508 60.508-27.144 60.508-60.508-27.144-60.508-60.508-60.508zM693.526 387.489c-50.048 0-90.762-40.714-90.762-90.762s40.714-90.762 90.762-90.762c50.046 0 90.762 40.714 90.762 90.762s-40.716 90.762-90.762 90.762zM693.526 266.472c-16.684 0-30.254 13.57-30.254 30.254 0 16.682 13.57 30.254 30.254 30.254 16.682 0 30.254-13.572 30.254-30.254 0-16.684-13.572-30.254-30.254-30.254zM723.78 569.014h60.508v-60.508h-60.508zM209.46 538.759h60.508v-60.508h-60.508zM481.747 175.71h60.508v-60.508h-60.508z" />
<glyph unicode="&#xe91d;" glyph-name="pillows" d="M396.951 414.887l115.049 60.485 115.049-60.485-21.971 128.11 93.076 90.73-128.63 18.688-57.525 116.56-57.525-116.56-128.63-18.688 93.076-90.73zM494.456 597.385l17.544 35.55 17.544-35.55 39.23-5.701-28.387-27.671 6.701-39.072-35.088 18.445-35.088-18.445 6.701 39.072-28.387 27.671zM1024 378.906c0 48.977-26.938 93.528-68.843 116.721v179.612c41.909 23.197 68.843 67.744 68.843 116.721 0 73.537-59.826 133.368-133.366 133.368-21.768 0-42.895-5.23-61.92-15.236-192.105 65.185-435.314 67.224-633.427 0-19.025 10.004-40.153 15.236-61.92 15.236-73.539 0.002-133.368-59.828-133.368-133.366 0-48.977 26.934-93.526 68.843-116.721v-179.612c-41.905-23.195-68.843-67.744-68.843-116.723 0-50.143 27.829-93.893 68.843-116.667v-41.48c-41.909-23.195-68.843-67.742-68.843-116.721 0-73.537 59.828-133.368 133.366-133.368 21.768 0 42.895 5.23 61.92 15.236 192.105-65.185 435.314-67.224 633.427 0 19.025-10.004 40.153-15.236 61.92-15.236 73.539 0 133.366 59.83 133.366 133.368 0 48.977-26.934 93.526-68.843 116.721v41.48c41.016 22.774 68.845 66.523 68.845 116.667zM108.98 447.888l20.069 7.096v260.898l-20.069 7.094c-29.172 10.317-48.775 38.040-48.775 68.986 0 40.34 32.82 73.162 73.16 73.162 14.887 0 29.22-4.455 41.446-12.884l12.723-8.768c9.653 2.527 131.903 56.072 324.465 56.072 110.185 0 217.357-17.584 309.923-50.848l14.542-5.226 12.723 8.768c12.228 8.429 26.559 12.884 41.446 12.884 40.342 0 73.16-32.82 73.16-73.162 0-30.946-19.603-58.667-48.775-68.984l-20.069-7.094v-260.898l20.069-7.096c29.174-10.313 48.775-38.034 48.775-68.982 0-40.342-32.818-73.16-73.16-73.16-14.889 0-29.22 4.455-41.446 12.882l-12.721 8.768c-9.655-2.527-131.911-56.072-324.467-56.072-110.181 0-217.351 17.584-309.925 50.848l-14.542 5.224-12.721-8.768c-12.226-8.427-26.557-12.882-41.446-12.882-40.34 0-73.16 32.82-73.16 73.16 0 30.948 19.601 58.671 48.775 68.982zM915.020 173.022c29.172-10.317 48.775-38.038 48.775-68.984 0-40.342-32.818-73.162-73.16-73.162-14.887 0-29.218 4.455-41.446 12.884l-12.723 8.768c-9.655-2.527-131.903-56.072-324.465-56.072-110.185 0-217.357 17.584-309.923 50.848l-14.542 5.224-12.723-8.768c-12.228-8.429-26.559-12.884-41.446-12.884-40.34 0-73.16 32.822-73.16 73.162 0 30.946 19.603 58.667 48.775 68.984l20.069 7.094v65.532c23.827-0.781 46.336 4.658 66.238 15.124 192.111-65.185 435.306-67.224 633.427 0 19.876-10.452 42.381-15.906 66.238-15.124v-65.532z" />
<glyph unicode="&#xe91e;" glyph-name="door-hanger" d="M512 960c-166.069 0-301.176-135.108-301.176-301.176v-30.118h180.706v30.118c0 66.427 54.043 120.471 120.471 120.471s120.471-54.043 120.471-120.471v-69.13l-421.647-150.588v-503.105h602.353v722.824c0 166.069-135.108 301.176-301.176 301.176zM752.941-3.765h-481.882v400.424l421.647 150.588v111.576c0 99.641-81.065 180.706-180.706 180.706-89.383 0-163.816-65.233-178.196-150.588h-60.872c14.87 118.69 116.413 210.824 239.068 210.824 132.855 0 240.941-108.086 240.941-240.941zM512 387.765c-83.034 0-150.588-67.554-150.588-150.588s67.554-150.588 150.588-150.588 150.588 67.554 150.588 150.588-67.554 150.588-150.588 150.588zM512 327.529c39.263 0 72.74-25.18 85.173-60.235h-170.345c12.435 35.055 45.909 60.235 85.173 60.235zM512 146.824c-39.263 0-72.738 25.18-85.173 60.235h170.345c-12.433-35.055-45.909-60.235-85.173-60.235z" />
<glyph unicode="&#xe91f;" glyph-name="smoking-area" d="M867.816 960h-711.632l-156.184-156.184v-711.632l156.184-156.184h711.634l156.182 156.184v711.632zM181.134 899.765h661.731l120.9-120.898v-511.572h-903.529v511.572zM60.235 146.824v60.235h903.529v-60.235zM842.866-3.765h-661.733l-90.355 90.353h842.439zM240.941 327.529h662.588c0 33.017 0 215.195 0 240.941h-0.102c-2.142 83.394-70.6 150.588-154.502 150.588h-357.396c-16.607 0-30.118 13.511-30.118 30.118s13.511 30.118 30.118 30.118h271.059v60.235h-271.059c-49.821 0-90.353-40.532-90.353-90.353s40.532-90.353 90.353-90.353h357.396c50.688 0 92.154-40.175 94.266-90.353h-602.251c-66.427 0-120.471-54.043-120.471-120.471s54.043-120.471 120.471-120.471zM843.294 387.765h-421.647v120.471h421.647zM240.941 508.235h120.471v-120.471h-120.471c-33.214 0-60.235 27.022-60.235 60.235s27.022 60.235 60.235 60.235z" />
<glyph unicode="&#xe920;" glyph-name="bathtub" d="M1024 387.765c0 83.034-67.554 150.588-150.588 150.588-28.64 0-493.474 0-542.118 0v60.235h-60.235v-60.235h-60.235v225.882c0 24.909 20.265 45.176 45.176 45.176s45.176-20.267 45.176-45.176v-45.176h60.235v45.176c0 58.123-47.287 105.412-105.412 105.412s-105.412-47.289-105.412-105.412v-225.882c-83.034 0-150.588-67.554-150.588-150.588v-30.118h60.235v-153.6c0-105.402 78.878-192.721 180.706-206.045v-62.002h60.235v60.235h421.647v-60.235h60.235v62.002c101.828 13.324 180.706 100.643 180.706 206.045v153.6h60.235zM873.412 478.118c39.267 0 72.762-25.176 85.193-60.235h-115.31v60.235zM783.059 478.118v-210.824h-180.706v210.824zM150.588 478.118h391.529v-60.235h-476.722c12.431 35.059 45.927 60.235 85.193 60.235zM903.529 204.047c0-81.374-66.203-147.576-147.576-147.576h-487.906c-81.374 0-147.576 66.203-147.576 147.576v153.6h421.647v-150.588h60.235v-60.235h60.235v60.235h60.235v-60.235h60.235v60.235h60.235v150.588h60.235zM602.353 628.706c49.821 0 90.353 40.53 90.353 90.353s-40.532 90.353-90.353 90.353c-49.823 0-90.353-40.532-90.353-90.353s40.53-90.353 90.353-90.353zM602.353 749.176c16.607 0 30.118-13.511 30.118-30.118s-13.511-30.118-30.118-30.118c-16.609 0-30.118 13.511-30.118 30.118s13.509 30.118 30.118 30.118zM873.412 719.059c66.427 0 120.471 54.043 120.471 120.471s-54.043 120.471-120.471 120.471-120.471-54.043-120.471-120.471 54.043-120.471 120.471-120.471zM873.412 899.765c33.214 0 60.235-27.022 60.235-60.235s-27.022-60.235-60.235-60.235-60.235 27.022-60.235 60.235 27.022 60.235 60.235 60.235zM632.471 929.882h60.235v-60.235h-60.235zM783.059 658.824h60.235v-60.235h-60.235z" />
<glyph unicode="&#xe921;" glyph-name="cleaning-service" d="M887.467 237.176h-44.173v572.235h-60.235v-572.235h-44.173c-75.284 0-136.533-61.249-136.533-136.533v-164.643h60.235v90.353h60.235v-90.353h60.235v90.353h60.235v-90.353h60.235v90.353h60.235v-90.353h60.235c0 55.525 0 116.055 0 164.643 0 75.284-61.249 136.533-136.533 136.533zM662.588 100.643c0 42.070 34.228 76.298 76.298 76.298h148.58c42.070 0 76.298-34.228 76.298-76.298v-14.055h-301.176zM602.353 448v60.235c-32.828 0-579.959 0-602.353 0v-60.235h45.187l54.21-512h415.607l54.21 512zM361.412 448v-60.235c0-33.214-27.022-60.235-60.235-60.235s-60.235 27.022-60.235 60.235v60.235zM460.808-3.765h-307.216l-47.835 451.765h74.949v-60.235c0-66.427 54.043-120.471 120.471-120.471s120.471 54.043 120.471 120.471v60.235h86.996zM542.118 719.059c66.427 0 120.471 54.043 120.471 120.471s-54.043 120.471-120.471 120.471-120.471-54.043-120.471-120.471 54.043-120.471 120.471-120.471zM542.118 899.765c33.214 0 60.235-27.022 60.235-60.235s-27.022-60.235-60.235-60.235-60.235 27.022-60.235 60.235 27.022 60.235 60.235 60.235zM301.176 598.588c49.821 0 90.353 40.53 90.353 90.353s-40.532 90.353-90.353 90.353c-49.823 0-90.353-40.532-90.353-90.353s40.53-90.353 90.353-90.353zM301.176 719.059c16.607 0 30.118-13.511 30.118-30.118s-13.511-30.118-30.118-30.118c-16.609 0-30.118 13.511-30.118 30.118s13.509 30.118 30.118 30.118z" />
<glyph unicode="&#xe922;" glyph-name="wine" d="M361.412 765.305v13.989h60.235v60.235h-60.235v120.471h-180.706v-120.471h-60.235v-60.235h60.235v-13.989c0-60.621-23.608-117.613-66.472-160.481-54.244-54.242-84.117-126.36-84.117-203.071v-465.753h481.882v465.753c0 76.712-29.873 148.829-84.117 203.073-42.863 42.865-66.472 99.858-66.472 160.479zM103.462 478.118h335.191c8.618-24.184 13.109-49.929 13.109-76.364v-285.047h-361.41v285.047c0 26.435 4.492 52.18 13.109 76.364zM240.941 899.765h60.235v-60.235h-60.235zM240.941 765.305v13.989h60.235v-13.989c0-76.712 29.873-148.829 84.117-203.073 7.539-7.539 14.469-15.525 20.791-23.881h-270.051c6.323 8.357 13.254 16.342 20.791 23.881 54.244 54.244 84.117 126.362 84.117 203.073zM90.353-3.765v60.235h361.412v-60.235zM271.059 176.941c66.427 0 120.471 54.043 120.471 120.471s-54.043 120.471-120.471 120.471-120.471-54.043-120.471-120.471 54.043-120.471 120.471-120.471zM271.059 357.647c33.214 0 60.235-27.022 60.235-60.235s-27.022-60.235-60.235-60.235-60.235 27.022-60.235 60.235 27.022 60.235 60.235 60.235zM572.235 357.647c0-72.148 42.506-134.544 103.785-163.491-8.509-13.776-13.432-29.987-13.432-47.333 0-39.263 25.18-72.74 60.235-85.173v-65.416h-90.353v-60.235h240.941v60.235h-90.353v65.416c35.055 12.433 60.235 45.909 60.235 85.173 0 17.346-4.923 33.557-13.432 47.333 61.279 28.947 103.785 91.343 103.785 163.491v240.941h-361.412zM783.059 146.824c0-16.609-13.509-30.118-30.118-30.118s-30.118 13.509-30.118 30.118 13.509 30.118 30.118 30.118 30.118-13.509 30.118-30.118zM752.941 237.176c-66.427 0-120.471 54.043-120.471 120.471v66.95c11.808-3 20.785-7.758 31.003-13.21 19.733-10.525 44.291-23.622 89.467-23.622s69.734 13.097 89.467 23.622c10.22 5.451 19.197 10.21 31.003 13.21v-66.95c0-66.427-54.043-120.471-120.471-120.471zM873.412 538.353v-52.387c-26.973-4.166-44.524-13.523-59.35-21.432-17.32-9.238-31.003-16.535-61.121-16.535s-43.801 7.297-61.121 16.535c-14.826 7.907-32.376 17.265-59.35 21.432v52.387zM677.647 658.824c41.518 0 75.294 33.776 75.294 75.294s-33.776 75.294-75.294 75.294-75.294-33.776-75.294-75.294 33.776-75.294 75.294-75.294zM677.647 749.176c8.304 0 15.059-6.754 15.059-15.059s-6.754-15.059-15.059-15.059-15.059 6.754-15.059 15.059 6.754 15.059 15.059 15.059zM903.529 899.765c-49.823 0-90.353-40.532-90.353-90.353s40.53-90.353 90.353-90.353 90.353 40.532 90.353 90.353-40.53 90.353-90.353 90.353zM903.529 779.294c-16.609 0-30.118 13.511-30.118 30.118s13.509 30.118 30.118 30.118 30.118-13.511 30.118-30.118-13.509-30.118-30.118-30.118z" />
<glyph unicode="&#xe923;" glyph-name="fridge" d="M0 960v-1024h1024v1024c-29.347 0-1008.817 0-1024 0zM421.647 899.765v-271.059h-361.412v271.059zM60.235-3.765v572.235h361.412v-572.235zM963.765-3.765h-481.882v903.529h481.882zM542.118 508.235h60.235v-361.412h-60.235zM301.176 508.235h60.235v-361.412h-60.235zM813.176 839.529h-180.706v-240.941h180.706zM752.941 658.824h-60.235v120.471h60.235zM692.706 538.353h60.235v-60.235h-60.235zM692.706 417.882h60.235v-60.235h-60.235zM301.176 809.412h60.235v-120.471h-60.235z" />
<glyph unicode="&#xe924;" glyph-name="comb" d="M911.561 960h-799.122c-61.998 0-112.439-50.439-112.439-112.439v-196.769c0-62 50.441-112.439 112.439-112.439h68.267v210.824h60.235v-180.706h60.235v180.706h60.235v-180.706h60.235v180.706h60.235v-180.706h60.235v180.706h60.235v-180.706h60.235v180.706h60.235v-180.706h60.235v180.706h60.235v-210.824h68.267c61.998 0 112.439 50.439 112.439 112.439v196.769c0 62-50.441 112.439-112.439 112.439zM963.765 650.792c0-28.784-23.419-52.204-52.204-52.204h-8.031v210.824h-783.059v-210.824h-8.031c-28.784 0-52.204 23.419-52.204 52.204v196.769c0 28.784 23.419 52.204 52.204 52.204h799.122c28.784 0 52.204-23.419 52.204-52.204zM284.969 297.412c10.286 17.733 16.207 38.3 16.207 60.235 0 66.427-54.043 120.471-120.471 120.471s-120.471-54.043-120.471-120.471 54.043-120.471 120.471-120.471h138.114l-60.235-60.235h-77.878c-66.427 0-120.471-54.043-120.471-120.471s54.043-120.471 120.471-120.471 120.471 54.043 120.471 120.471c0 21.936-5.921 42.502-16.207 60.235h537.327l135.529 90.347-135.529 90.359zM120.471 357.647c0 33.214 27.022 60.235 60.235 60.235s60.235-27.022 60.235-60.235-27.022-60.235-60.235-60.235-60.235 27.022-60.235 60.235zM240.941 56.471c0-33.214-27.022-60.235-60.235-60.235s-60.235 27.022-60.235 60.235 27.022 60.235 60.235 60.235 60.235-27.022 60.235-60.235zM804.057 176.941h-460.288l60.235 60.235h400.053l45.176-30.12z" />
<glyph unicode="&#xe925;" glyph-name="teapot" d="M889.818 575.745c80.276 178.901-50.393 384.255-249.531 384.255h-75.858c-199.319 0-329.746-205.491-249.529-384.255-67.819-63.177-112.405-146.079-127.992-236.323-3.869 5.066-6.196 11.372-6.196 18.225v78.641c0 72.887-59.298 132.182-132.184 132.182h-48.522v-240.941c0-126.107 97.384-229.88 220.899-240.1 25.955-55.021 63.878-104.426 112.030-144.468l8.371-6.961h522.107l8.371 6.961c195.67 162.714 203.766 459.766 18.034 632.784zM308.796 478.118c15.713 21.841 33.937 42.074 54.523 60.235h478.077c20.586-18.161 38.81-38.394 54.523-60.235zM572.241 749.176c0 16.607 13.511 30.118 30.118 30.118 16.609 0 30.118-13.511 30.118-30.118s-13.509-30.118-30.118-30.118-30.118 13.511-30.118 30.118zM673.637 658.824c27.126 0 49.192-22.066 49.192-49.192v-11.043h-240.941v11.043c0 27.126 22.068 49.192 49.192 49.192zM564.429 899.765h75.858c156.054 0 257.819-161.521 193.743-301.176h-50.967v11.043c0 55.732-41.888 101.832-95.83 108.552 3.542 9.67 5.477 20.111 5.477 30.993 0 49.821-40.53 90.353-90.353 90.353s-90.353-40.532-90.353-90.353c0-10.883 1.936-21.321 5.475-30.993-53.941-6.722-95.828-52.822-95.828-108.552v-11.043h-50.967c-64.042 139.581 37.605 301.176 193.745 301.176zM60.241 327.529v179.752c34.121-5.61 60.235-35.31 60.235-70.993v-78.641c0-39.289 25.217-72.784 60.306-85.197-0.484-40.42 4.616-80.464 15.824-120.115-78.274 19.819-136.365 90.847-136.365 175.194zM841.399-3.765h-478.077c-122.143 107.751-154.552 279.895-89.57 421.647h418.963v-90.353h-60.235v-210.824h180.706v210.824h-60.235v90.353h178.021c21.378-46.636 32.802-97.84 32.802-150.588-0.002-104.149-44.47-202.332-122.374-271.059zM752.947 267.294v-90.353h-60.235v90.353zM25.588 680.797c-9.569-8.969-25.582-23.984-25.582-52.091h60.235c0 1.667 0 2.012 6.544 8.15 9.567 8.969 25.582 23.982 25.582 52.087 0 28.108-16.015 43.12-25.582 52.089-6.544 6.138-6.544 6.483-6.544 8.15 0 1.662 0 2.008 6.542 8.142 9.569 8.967 25.584 23.98 25.584 52.087h-60.235c0-1.662 0-2.010-6.544-8.144-9.569-8.967-25.582-23.98-25.582-52.085 0-28.108 16.015-43.122 25.582-52.089 6.544-6.138 6.544-6.483 6.544-8.15 0-1.665 0-2.012-6.544-8.146zM174.168 831.386c-9.569-8.969-25.582-23.984-25.582-52.091h60.235c0 1.667 0 2.012 6.544 8.15 9.567 8.969 25.582 23.982 25.582 52.087 0 28.108-16.015 43.12-25.582 52.089-6.544 6.138-6.544 6.483-6.544 8.15 0 1.662 0 2.008 6.542 8.142 9.569 8.969 25.584 23.98 25.584 52.087h-60.235c0-1.662 0-2.010-6.544-8.144-9.569-8.969-25.582-23.98-25.582-52.085 0-28.108 16.015-43.12 25.582-52.089 6.544-6.138 6.544-6.483 6.544-8.15 0-1.665 0-2.012-6.544-8.146z" />
<glyph unicode="&#xe926;" glyph-name="plug-and-socket" d="M662.588 598.588v60.235h210.824c49.823 0 90.353 40.53 90.353 90.353s-40.53 90.353-90.353 90.353h-394.559c-13.993 68.652-74.834 120.471-147.558 120.471h-180.706v-60.235h-90.353v-60.235h90.353v-60.235h-90.353v-60.235h90.353v-60.235h180.706c72.724 0 133.566 51.818 147.558 120.471h394.559c16.607 0 30.118-13.511 30.118-30.118s-13.511-30.118-30.118-30.118h-271.059v-120.471h-602.353v-662.588h1024v662.588zM331.294 719.059h-120.471v180.706h120.471c49.821 0 90.353-40.532 90.353-90.353s-40.532-90.353-90.353-90.353zM963.765-3.765h-903.529v542.118h903.529zM240.941 297.412h60.235v-60.235h-60.235zM361.412 297.412h60.235v-60.235h-60.235zM903.529 56.471v421.647c-39.651 0-756.027 0-783.059 0v-421.647zM542.118 417.882h301.176v-301.176h-301.176zM180.706 116.706v301.176h301.176v-301.176zM602.353 237.176h60.235v-60.235h-60.235zM722.824 237.176h60.235v-60.235h-60.235zM662.588 357.647h60.235v-60.235h-60.235z" />
<glyph unicode="&#xe927;" glyph-name="spa" d="M632.471 756.748c0 27.515-16.631 64.018-50.843 111.59-23.271 32.358-46.245 58.035-47.212 59.115l-22.416 24.978-22.416-24.978c-0.966-1.078-23.942-26.755-47.212-59.115-34.212-47.574-50.843-84.074-50.843-111.59 0-66.427 54.043-120.471 120.471-120.471s120.471 54.041 120.471 120.471zM512 696.511c-33.214 0-60.235 27.022-60.235 60.235 0 19.197 28.307 64.034 60.235 103.954 31.931-39.926 60.235-84.759 60.235-103.954 0-33.212-27.022-60.235-60.235-60.235zM1000.938 335.101c14.336 15.996 23.062 37.115 23.062 60.235 0 49.823-40.53 90.353-90.353 90.353h-196.728c28.674 31.995 46.14 74.228 46.14 120.471v30.118c-30.118 0-512 0-542.118 0v-30.118c0-46.243 17.466-88.476 46.14-120.471h-136.493c-83.034 0-150.588-67.552-150.588-150.588 0-40.478 16.083-77.25 42.157-104.338-47.566-30.128-56.214-95.184-19.095-136.604-14.334-15.996-23.062-37.117-23.062-60.235 0-49.823 40.532-90.353 90.353-90.353h783.059c83.034 0 150.588 67.554 150.588 150.588 0 40.478-16.085 77.25-42.157 104.338 47.566 30.126 56.214 95.184 19.095 136.604zM304.987 576.040h414.023c-13.406-51.903-60.627-90.353-116.66-90.353h-180.706c-56.029 0-103.251 38.452-116.658 90.353zM150.588 425.454h783.059c16.609 0 30.118-13.511 30.118-30.118 0-16.609-13.509-30.118-30.118-30.118h-783.059v-60.235h783.059c16.609 0 30.118-13.511 30.118-30.118 0-16.609-13.509-30.118-30.118-30.118-13.057 0-750.901 0-783.059 0-49.821 0-90.353 40.53-90.353 90.353s40.532 90.353 90.353 90.353zM873.412 3.807h-783.059c-16.607 0-30.118 13.509-30.118 30.118 0 16.607 13.511 30.118 30.118 30.118h783.059v60.235h-783.059c-16.607 0-30.118 13.509-30.118 30.118 0 16.607 13.511 30.118 30.118 30.118h783.059c49.823 0 90.353-40.53 90.353-90.353s-40.53-90.353-90.353-90.353z" />
<glyph unicode="&#xe928;" glyph-name="pie" d="M1024 207.059c-21.799 0-89.233 0-111.913 0 16.743 22.173 21.56 43.309 21.56 60.235 0 53.563-47.582 101.362-133.981 134.592-159.919 61.508-415.334 61.536-575.329 0-86.402-33.23-133.983-81.029-133.983-134.592 0-16.926 4.817-38.063 21.56-60.235-22.679 0-90.114 0-111.913 0v-60.235h60.44c4.196-83.745 73.646-150.588 158.415-150.588h586.29c84.769 0 154.218 66.843 158.415 150.588h60.44zM150.588 267.294c0 28.744 44.915 63.97 125.177 88.889l28.59-57.181 53.876 26.937-22.689 45.379c29.71 6.015 62.619 10.67 98.437 13.469l52.13-87.705 51.778 30.776-35.579 59.86c38.029 0.349 76.306-1.317 113.965-5.369l50.521-85.235 51.818 30.714-25.166 42.458c114.361-24.032 179.965-68.247 179.965-102.992 0-19.143-20.173-40.894-55.633-60.235h-611.557c-35.461 19.342-55.633 41.093-55.633 60.235zM805.145 56.471h-586.29c-51.543 0-93.957 39.848-98.059 90.353h782.41c-4.104-50.505-46.518-90.353-98.061-90.353zM271.059 538.353h60.235c0 6.995 1.845 9.449 11.258 18.864 11.507 11.509 28.899 28.901 28.899 61.454 0 32.555-17.392 49.945-28.899 61.454-9.413 9.413-11.258 11.866-11.258 18.864 0 6.991 1.845 9.445 11.256 18.856 11.509 11.507 28.901 28.897 28.901 61.45h-60.235c0-6.991-1.845-9.445-11.256-18.856-11.509-11.507-28.901-28.897-28.901-61.45 0-32.555 17.392-49.945 28.899-61.454 9.413-9.415 11.258-11.866 11.258-18.864 0-6.995-1.845-9.449-11.258-18.864-11.507-11.509-28.899-28.899-28.899-61.454zM642.51 538.353h60.235c0 6.995 1.845 9.449 11.258 18.864 11.509 11.509 28.899 28.901 28.899 61.454 0 32.555-17.392 49.945-28.899 61.454-9.413 9.413-11.258 11.866-11.258 18.864 0 6.991 1.843 9.445 11.256 18.856 11.509 11.507 28.901 28.897 28.901 61.45h-60.235c0-6.991-1.843-9.445-11.256-18.856-11.509-11.507-28.901-28.897-28.901-61.45 0-32.555 17.392-49.945 28.899-61.454 9.413-9.415 11.258-11.866 11.258-18.864 0-6.995-1.845-9.449-11.258-18.864-11.507-11.509-28.899-28.899-28.899-61.454zM461.804 658.824h60.235c0 6.995 1.845 9.449 11.258 18.864 11.509 11.509 28.899 28.901 28.899 61.454 0 32.555-17.392 49.945-28.899 61.454-9.413 9.413-11.258 11.866-11.258 18.864 0 6.991 1.843 9.445 11.256 18.856 11.509 11.507 28.901 28.897 28.901 61.45h-60.235c0-6.991-1.845-9.445-11.256-18.856-11.509-11.507-28.901-28.897-28.901-61.45 0-32.555 17.392-49.945 28.899-61.454 9.413-9.413 11.258-11.866 11.258-18.864 0-6.995-1.845-9.449-11.258-18.864-11.507-11.509-28.899-28.899-28.899-61.454z" />
<glyph unicode="&#xe929;" glyph-name="milk" d="M933.647 817.752v47.879c0 52.035-42.333 94.369-94.369 94.369h-293.145c-52.035 0-94.369-42.333-94.369-94.369v-47.879l-90.353-150.588v-731.164h662.588v731.164zM796.124 688.941h-351.401l54.212 90.353h351.403zM512 865.631c0 18.822 15.312 34.133 34.133 34.133h293.145c18.822 0 34.133-15.312 34.133-34.133v-26.102h-361.412zM421.647 628.706h361.412v-150.588h-361.412zM783.059 207.059h-361.412v210.824h361.412zM421.647 146.824h361.412v-150.588h-361.412zM963.765-3.765h-120.471c0 31.782 0 622.492 0 654.248l60.235 100.392 60.235-100.392zM0-64h301.176v542.118h-301.176zM60.235-3.765v301.176h180.706v-301.176zM240.941 417.882v-60.235h-180.706v60.235z" />
<glyph unicode="&#xe92a;" glyph-name="microwave" d="M0 869.647v-722.824h66.839l30.118-120.471h830.089l30.118 120.471h66.837c0 29.704 0 690.768 0 722.824zM880.014 86.588h-736.027l-15.059 60.235h766.145zM361.412 371.702v16.063h180.706v-16.063c0-24.357-19.815-44.173-44.173-44.173h-92.361c-24.357 0-44.173 19.815-44.173 44.173zM301.176 448v-76.298c0-15.782 3.54-30.748 9.834-44.173h-130.305v361.412h542.118v-361.412h-130.305c6.297 13.424 9.834 28.391 9.834 44.173v76.298zM783.059 688.941h180.706v-361.412h-180.706zM120.471 749.176v-481.882h843.294v-60.235h-903.529v602.353h903.529v-60.235zM843.294 448h60.235v-60.235h-60.235zM843.294 568.471h60.235v-60.235h-60.235zM361.412 628.706h60.235v-120.471h-60.235zM481.882 628.706h60.235v-120.471h-60.235z" />
<glyph unicode="&#xe92b;" glyph-name="Sunbed" d="M812.38 357.81h-373.318l-149.396 151.564c-55.414 56.213-145.693 56.365-201.338 0.718l-25.428-25.439 111.356-126.844h-114.080v-120.353h-60.176v-180.529h60.176v-120.357h143.845l30.088 120.357h554.777l30.088-120.357h143.845v120.357h60.176v180.529h-63.203c-13.979 68.585-74.761 120.353-147.414 120.353zM146.983 480.088c30.768 18.302 72.326 14.942 99.826-12.96l167.073-169.495h398.497c39.229 0 72.691-25.152 85.109-60.176h-523.969l-110.847 110.847zM120.353 297.633h107.89l60.176-60.176h-168.066zM157.036-3.252h-36.683v60.18h51.728zM902.644-3.252h-36.683l-15.044 60.18h51.728zM962.821 117.105c-19.896 0-874.735 0-902.644 0v60.176h902.644zM961.174 763.996c-4.297 23.276-13.453 44.855-26.413 63.642l44.462 44.462-42.551 42.551-44.462-44.462c-18.785 12.96-40.366 22.117-63.642 26.413v62.826h-60.176v-62.826c-23.276-4.297-44.855-13.453-63.642-26.413l-44.464 44.462-42.551-42.551 44.464-44.462c-12.96-18.785-22.117-40.366-26.413-63.642h-62.826v-60.176h62.826c4.297-23.274 13.453-44.855 26.413-63.642l-44.464-44.462 42.551-42.551 44.464 44.462c18.785-12.96 40.366-22.117 63.642-26.413v-62.826h60.176v62.826c23.274 4.297 44.855 13.453 63.642 26.413l44.462-44.462 42.551 42.551-44.462 44.462c12.96 18.785 22.117 40.366 26.413 63.642h62.826v60.176zM798.479 628.599c-58.066 0-105.309 47.242-105.309 105.309s47.242 105.309 105.309 105.309 105.309-47.242 105.309-105.309-47.24-105.309-105.309-105.309z" />
<glyph unicode="&#xe92c;" glyph-name="sink" d="M361.412 267.294h60.235v-180.706h-60.235zM602.353 267.294h60.235v-180.706h-60.235zM772.845 538.353c26.267 45.45 40.332 97.268 40.332 150.588v30.118h-120.471v60.235h-60.235v-60.235h-90.353v135.529c0 24.909 20.267 45.176 45.176 45.176s45.176-20.267 45.176-45.176v-15.059h60.235v15.059c0 58.123-47.289 105.412-105.412 105.412s-105.412-47.289-105.412-105.412v-135.529h-90.353v60.235h-60.235v-60.235h-120.471v-30.118c0-53.32 14.065-105.139 40.332-150.588h-160.802v-602.353h843.294c0 31.583 0 592.378 0 602.353zM272.942 658.824h478.118c-5.526-44.016-23.1-85.685-50.985-120.471h-376.149c-27.885 34.786-45.46 76.455-50.983 120.471zM481.882-3.765h-331.294v361.412h331.294zM873.412-3.765h-331.294v361.412h331.294zM150.588 417.882v60.235h722.824v-60.235c-7.79 0-713.347 0-722.824 0z" />
<glyph unicode="&#xe92d;" glyph-name="table-lamp" d="M602.353 478.118h343.913l-172.1 481.882h-524.332l-172.1-481.882h343.913v-90.353h-215.811l69.503-451.765h473.323l69.503 451.765h-215.813zM817.766 658.824h-611.533l21.512 60.235h568.509zM292.284 899.765h439.433l43.026-120.471h-525.483zM163.208 538.353l21.512 60.235h654.559l21.512-60.235c-16.938 0-697.583 0-697.583 0zM481.882 478.118h60.235v-90.353h-60.235zM451.765-3.765v90.353c0 33.214 27.022 60.235 60.235 60.235s60.235-27.022 60.235-60.235v-90.353zM747.954 327.529l-50.967-331.294h-64.516v90.353c0 56.031-38.452 103.251-90.353 116.66v64.046h-60.235v-64.046c-51.901-13.408-90.353-60.627-90.353-116.66v-90.353h-64.514l-50.967 331.294h326.307z" />
<glyph unicode="&#xe92e;" glyph-name="calendar" d="M873.412 839.529v60.235h-180.706v-60.235h-361.412v60.235h-180.706v-60.235h-150.588v-843.294h1024c0 138.292 0 755.684 0 843.294zM752.941 839.529h60.235v-60.235h-60.235zM210.824 839.529h60.235v-60.235h-60.235zM963.765 56.471h-903.529v542.118h903.529zM60.235 658.824v120.471h90.353v-60.235h180.706v60.235h361.412v-60.235h180.706v60.235h90.353v-120.471zM240.941 116.706h60.235v60.235h60.235v-60.235h60.235v60.235h60.235v-60.235h60.235v60.235h60.235v-60.235h60.235v60.235h60.235v-60.235h60.235v60.235h90.353v60.235h-90.353v60.235h90.353v60.235h-90.353v60.235h90.353v60.235h-90.353v60.235h-60.235v-60.235h-60.235v60.235h-60.235v-60.235h-60.235v60.235h-60.235v-60.235h-60.235v60.235h-60.235v-60.235h-60.235v60.235h-60.235v-60.235h-90.353v-60.235h90.353v-60.235h-90.353v-60.235h90.353v-60.235h-90.353v-60.235h90.353zM421.647 237.176v60.235h60.235v-60.235zM542.118 237.176v60.235h60.235v-60.235zM722.824 237.176h-60.235v60.235h60.235zM722.824 417.882v-60.235h-60.235v60.235zM602.353 417.882v-60.235h-60.235v60.235zM481.882 417.882v-60.235h-60.235v60.235zM301.176 417.882h60.235v-60.235h-60.235zM301.176 297.412h60.235v-60.235h-60.235z" />
<glyph unicode="&#xe92f;" glyph-name="flower" d="M831.845 314.129l-1.49 26.917-26.917 1.49c-100.434 5.522-200.076-39.655-261.319-125.006v141.617c151.98 15.159 271.059 143.77 271.059 299.675-0.002 166.071-135.11 301.178-301.178 301.178s-301.176-135.108-301.176-301.176c0-155.905 119.077-284.515 271.059-299.675v-141.617c-61.259 85.371-160.949 130.556-261.319 125.006l-26.919-1.49-1.49-26.917c-4.73-85.49 27.246-169.211 87.733-229.697 53.933-53.933 126.333-85.177 201.995-87.966v-60.468h60.235v60.466c75.656 2.793 148.064 34.035 201.993 87.966 60.488 60.488 92.463 144.209 87.735 229.697zM252.412 282.279c58.223-3.688 113.624-28.437 155.254-70.068h0.002c41.633-41.633 66.381-97.027 70.070-155.252-121.185 7.674-217.648 104.089-225.326 225.32zM662.588 749.176c0-33.828-11.218-65.084-30.12-90.251-0.054 66.379-54.075 120.368-120.469 120.368s-120.412-53.989-120.469-120.368c-18.904 25.168-30.12 56.422-30.12 90.251 0 83.034 67.554 150.588 150.588 150.588 83.036 0 150.588-67.554 150.588-150.588zM451.765 658.824c0 33.214 27.022 60.235 60.235 60.235s60.235-27.022 60.235-60.235-27.022-60.235-60.235-60.235-60.235 27.022-60.235 60.235zM271.059 658.824c0 43.797 11.75 84.898 32.258 120.326-18.231-127.534 81.103-240.797 208.683-240.797 127.761 0 226.89 113.431 208.685 240.797 20.506-35.43 32.256-76.531 32.256-120.326 0-132.855-108.086-240.941-240.941-240.941s-240.941 108.086-240.941 240.941zM546.264 56.956c7.67 121.173 104.091 217.646 225.322 225.322-7.672-121.181-104.091-217.646-225.322-225.322z" />
<glyph unicode="&#xe930;" glyph-name="menu" d="M105.412 960v-180.706h-60.235v-60.235h60.235v-90.353h-60.235v-60.235h60.235v-90.353h-60.235v-60.235h60.235v-90.353h-60.235v-60.235h60.235v-90.353h-60.235v-60.235h60.235v-180.706h873.412v1024c-32.86 0-836.020 0-873.412 0zM286.118-3.765h-120.471v120.471h60.235v60.235h-60.235v90.353h60.235v60.235h-60.235v90.353h60.235v60.235h-60.235v90.353h60.235v60.235h-60.235v90.353h60.235v60.235h-60.235v120.471h120.471zM918.588-3.765h-572.235v903.529h572.235zM572.235 297.412h120.471c91.337 0 165.647 74.31 165.647 165.647v75.294h-63.578c18.332 77.121-40.54 150.588-119.011 150.588-40.482 0-78.201-20.299-100.8-53.039-52.473-4.088-94.638-45.444-100.017-97.549h-68.359v-75.294c0-91.337 74.31-165.647 165.647-165.647zM588.945 575.695l21.406-2.327 9.128 19.502c10.188 21.769 32.282 35.836 56.286 35.836 34.252 0 62.119-27.867 62.119-62.119 0-10.019-2.363-19.578-6.811-28.236h-195.154c5.548 23.383 27.77 40.103 53.027 37.344zM466.824 478.118h331.294v-15.059c0-58.123-47.289-105.412-105.412-105.412h-120.471c-58.123 0-105.412 47.289-105.412 105.412zM406.588 237.176h451.765v-60.235h-451.765zM527.059 116.706h210.824v-60.235h-210.824zM560.967 839.529h60.235v-90.353h-60.235zM440.497 809.412h60.235v-120.471h-60.235z" />
<glyph unicode="&#xe931;" glyph-name="toast" d="M918.588 779.294c-32.226 0-780.449 0-813.176 0-58.123 0-105.412-47.289-105.412-105.412 0-41.265 24.233-78.101 60.235-95.244v-461.932h903.529v461.932c36.003 17.145 60.235 53.981 60.235 95.244 0 58.123-47.289 105.412-105.412 105.412zM566.244 629.613l-24.126-4.897v-447.775h-421.647v447.775l-24.126 4.897c-20.924 4.247-36.109 22.865-36.109 44.269 0 24.909 20.267 45.176 45.176 45.176h451.765c24.909 0 45.176-20.267 45.176-45.176 0-21.404-15.187-40.022-36.109-44.269zM602.353 569.98h301.176v-272.569h-301.176zM602.353 176.941v60.235h301.176v-60.235zM930.067 630.216h-277.008c13.085 28.588 12.543 61.123-0.663 88.843h266.192c24.909 0 45.176-20.267 45.176-45.176 0-20.566-14.039-38.522-33.698-43.667zM421.647 568.471h60.235v-331.294h-60.235zM301.176 568.471h60.235v-331.294h-60.235zM180.706 568.471h60.235v-331.294h-60.235z" />
</font>
</defs>
</svg>
