<?xml version="1.0" standalone="no"?>
<!DOCTYPE svg PUBLIC "-//W3C//DTD SVG 1.1//EN" "http://www.w3.org/Graphics/SVG/1.1/DTD/svg11.dtd" >
<svg xmlns="http://www.w3.org/2000/svg">
<metadata>Generated by IcoMoon</metadata>
<defs>
<font id="lineicons" horiz-adv-x="1024">
<font-face units-per-em="1024" ascent="896" descent="-128" />
<missing-glyph horiz-adv-x="1024" />
<glyph unicode="&#x20;" horiz-adv-x="400" d="" />
<glyph unicode="&#xf100;" glyph-name="3770167" d="M859.87 640.264c74.379-84.492 115.035-191.797 115.035-305.36 0-255.862-209.080-462.904-464.908-462.904-255.86 0-460.9 207.074-460.9 462.904 0 246.45 191.818 446.568 432.846 461.916v69.121c0 16.6 13.459 30.059 30.059 30.059 149.33 0 289.73-60.156 395.342-165.75 11.74-11.734 11.732-30.773 0.004-42.508-1.379-1.379-19.666-19.668-47.477-47.479zM542.058 304.846v-194.385c100.865 13.438 180.945 93.52 194.383 194.385h-194.383zM584.568 364.962h329.098c-6.328 86.303-39.818 167.209-96.383 232.714-22.229-22.229-208.544-208.542-232.714-232.714zM542.058 832.994v-425.522c83.156 83.156 242.678 242.678 300.894 300.896-83.885 74.52-188.896 118.016-300.894 124.625zM109.213 334.904c0-211.988 162.609-386.24 370.724-401.666 0 22.666 2.004 780.718 2.004 803.342-208.112-15.428-372.728-189.691-372.728-401.676zM540.054-66.762c198.188 14.689 358.922 173.42 373.612 371.608h-116.682c-14.037-134.053-120.871-240.888-254.926-254.926zM360.294 364.622c79.223-28.004 69.572-133.371-3.258-159.701v-6.281c0-16.602-13.459-30.059-30.059-30.059s-30.059 13.457-30.059 30.059v2.881c-13.848 2.432-26.502 7.613-42.486 18.070-13.893 9.086-17.787 27.715-8.699 41.607 9.088 13.895 27.715 17.787 41.609 8.699 14.652-9.584 19.398-10.332 39.43-10.193 19.338 0.129 27.045 15.309 28.549 24.256 1.35 8.031-0.166 18.715-15.064 23.979-24.955 8.822-50.549 18.947-68.678 33.166-41.283 32.381-28.82 106.334 25.342 126.016v4.352c0 16.6 13.459 30.059 30.059 30.059 16.602 0 30.059-13.459 30.059-30.059v-1.666c14.809-4.182 26.738-11.74 34.932-20.072 11.643-11.836 11.482-30.867-0.354-42.508-11.832-11.635-30.846-11.48-42.486 0.336-1.678 1.637-10.938 9.357-30.986 3.32-8.002-2.41-10.152-10.709-10.621-13.195-0.977-5.191 0.414-8.689 1.16-9.275 11.336-8.893 32.451-17.018 51.611-23.789z" />
<glyph unicode="&#xf101;" glyph-name="3770168" d="M895.556 580.962c78.037-152.582 58.953-341.582-56.492-476.314-46.91-54.744-72.744-127.99-72.744-202.612 0-16.59-13.449-30.039-30.037-30.039h-144.186c-15.15 0-27.928 11.283-29.807 26.314l-8.072 66.578c-2.656 21.25-20.809 37.275-42.225 37.275s-39.568-16.025-42.225-37.275l-8.072-66.578c-1.879-15.033-14.656-26.314-29.807-26.314h-144.186c-16.588 0-30.037 13.449-30.037 30.039 0 75.061-25.699 147.072-74.32 204.462-114.422 135.062-132.379 322.774-54.777 474.15-54.678 121.768-35.186 248.484 47.85 296.426 38.355 22.145 86.346 24.953 135.129 7.91 40.367-14.104 79.215-42.447 113.23-78.643 57.355 11.801 117.008 11.822 174.484 0.057 34.018 36.182 72.861 64.512 113.223 78.602 48.766 17.023 96.74 14.211 135.080-7.926 82.93-47.881 102.484-174.463 47.99-296.114zM793.446 143.742c100.549 117.342 117.537 286.832 42.273 421.758-4.826 8.65-5.078 19.127-0.668 28 47.514 95.613 39.816 198.445-17.521 231.55-29.43 16.99-62.6 11.137-85.242 3.232-34.727-12.123-70.076-39.887-99.535-74.537-7.396-8.699-19.082-12.457-30.16-9.689-59.324 14.799-121.941 14.777-181.090-0.068-11.090-2.781-22.799 0.967-30.205 9.686-29.463 34.674-64.822 62.457-99.562 74.596-121.766 42.535-171.715-96.414-102.654-235.060 4.428-8.885 4.178-19.387-0.668-28.053-74.883-133.93-58.498-302.642 40.771-419.82 51.4-60.672 81.303-135.188 87.395-213.258h88.795l4.781 40.266c6.408 51.254 50.189 89.9 101.84 89.9s95.432-38.648 101.838-89.9l4.783-40.266h88.812c6.154 77.932 36.152 153.469 86.018 211.664zM654.274 387.432c85.896-62.467 84.904-168.090 0-229.836-79.418-57.76-205.188-57.725-284.558 0-85.896 62.467-84.904 168.090 0 229.836 79.418 57.76 205.188 57.725 284.558 0zM511.994 174.389c79.244 0 146.188 44.936 146.188 98.127 0 53.189-66.945 98.125-146.188 98.125s-146.188-44.936-146.188-98.125c0-53.191 66.945-98.127 146.188-98.127zM463.932 318.574c16.59 0 30.039-13.449 30.039-30.039v-32.041c0-16.59-13.449-30.039-30.039-30.039-16.588 0-30.037 13.449-30.037 30.039v32.041c0 16.59 13.449 30.039 30.037 30.039zM560.056 318.574c16.588 0 30.037-13.449 30.037-30.039v-32.041c0-16.59-13.449-30.039-30.037-30.039-16.59 0-30.039 13.449-30.039 30.039v32.041c0 16.59 13.449 30.039 30.039 30.039zM448.056 514.534c-11.006 0-21.533 6.080-26.785 16.412-1.709 2.693-11.434 15.922-37.441 15.922-26.793 0-36.305-14.035-37.576-16.135-7.631-14.326-25.35-20.055-39.953-12.756-14.838 7.42-20.861 25.441-13.443 40.279 9.055 18.109 38.379 48.688 90.973 48.688s81.914-30.58 90.949-48.646c0.189-0.377 0.371-0.76 0.543-1.146l0.127-0.285c6.787-15.139 0.016-32.912-15.123-39.695-3.99-1.787-8.162-2.637-12.27-2.637zM346.616 531.432c-0.109-0.221-0.223-0.439-0.336-0.654 0.234 0.416 0.336 0.654 0.336 0.654zM575.932 514.534c-4.107 0-8.277 0.848-12.27 2.637-15.139 6.785-21.908 24.559-15.123 39.695l0.127 0.285c0.172 0.387 0.354 0.77 0.541 1.146 9.035 18.066 38.355 48.646 90.951 48.646s81.916-30.58 90.951-48.646c7.42-14.84 1.416-32.902-13.424-40.322-14.621-7.311-32.35-1.596-39.961 12.771-1.309 2.154-10.842 16.119-37.566 16.119-26.012 0-35.736-13.229-37.441-15.922-5.254-10.328-15.781-16.41-26.785-16.41zM677.392 531.392c-0.002 0 0.092-0.215 0.303-0.586-0.102 0.191-0.203 0.389-0.301 0.584-0.002 0-0.002 0.002-0.002 0.002zM602.946 531.432v0z" />
<glyph unicode="&#xf102;" glyph-name="3770169" d="M994 382c16.568 0 30-13.432 30-30v-416c0-16.568-13.432-30-30-30h-740c-16.568 0-30 13.432-30 30v258h-194c-16.568 0-30 13.432-30 30v480c0 16.568 13.432 30 30 30h170.576l26.32 105.275c3.338 13.355 15.338 22.725 29.104 22.725h192c13.766 0 25.766-9.369 29.104-22.725l26.32-105.275h168.576c16.568 0 30-13.432 30-30v-322h292zM964 322h-81.996c10.592-38.793 43.203-69.406 81.996-79.996v79.996zM624 194c-27.57 0-50-22.43-50-50s22.43-50 50-50 50 22.43 50 50-22.43 50-50 50zM279.424 802l-17-68h179.152l-17 68h-145.152zM60 674v-14c0-82.711 69.289-150 152-150h280c82.711 0 150 67.289 150 150v14h-582zM386.038 382.002l-0.025 67.998h-68.012v-68c56.865 0 67.838-0.031 68.037 0.002zM60 513.192v-259.192h582v259.192c-38.146-38.965-91.293-63.191-150-63.191h-46v-68c0-33.084-26.916-60-60-60h-68c-33.084 0-60 26.916-60 60v68h-46c-58.707 0-113.854 24.227-152 63.191zM526.070 194h-242.070v-86.117c71.092-11.477 130.562-67.65 143.389-141.883h393.208c12.557 71.947 71.457 128.848 143.404 141.404v73.191c-71.947 12.557-130.848 69.457-143.404 141.404h-118.596c0-106.111 0.061-98.1-0.119-100.396 19.836-19.906 32.119-47.346 32.119-77.604 0-60.654-49.346-110-110-110-82.537 0-135.021 87.65-97.93 160zM284-34h82.029c-10.914 40.23-43.428 70.914-82.029 80.734v-80.734zM964-34v79.996c-38.793-10.592-71.406-41.203-81.996-79.996h81.996z" />
<glyph unicode="&#xf103;" glyph-name="3770170" d="M991.998 896c16.568 0 30-13.432 30-30s-13.432-30-30-30h-34v-595.998c0-16.568-13.432-30-30-30h-386v-119.291l137.221-169.713c16.057-19.627 1.869-48.998-23.201-48.998-8.689-0.002-17.305 3.754-23.236 11.002l-120.783 149.623-120.779-149.621c-10.492-12.822-29.391-14.711-42.215-4.221-12.824 10.492-14.715 29.393-4.223 42.217l137.219 169.711v119.291h-386c-16.568 0-30 13.432-30 30v595.998h-34c-16.568 0-30 13.432-30 30s13.432 30 30 30h959.998zM897.998 270.002v565.998h-771.998v-565.998h771.998zM480 338.002c-16.568 0-30 13.432-30 30 0 16.566 13.432 29.998 30 29.998h2v210c0 16.568 13.432 30 29.998 30 16.568 0 30-13.432 30-30v-210h68v274c0 16.568 13.434 30 30 30 16.568 0 30-13.432 30-30v-274h68v338c0 16.568 13.432 30 30 30s30-13.432 30-30v-338h2c16.568 0 30-13.432 30-29.998 0-16.568-13.432-30-30-30h-319.998zM310.592 533.658c79.070-27.947 69.438-133.109-3.252-159.387v-6.27c0-16.568-13.432-30-30-30s-30 13.432-30 30v2.875c-13.82 2.426-26.451 7.598-42.404 18.033-13.863 9.070-17.752 27.662-8.682 41.529 9.070 13.865 27.662 17.752 41.527 8.682 14.625-9.566 19.361-10.313 39.354-10.174 19.301 0.127 26.992 15.277 28.492 24.207 1.348 8.016-0.166 18.678-15.033 23.932-24.908 8.807-50.451 18.91-68.545 33.104-41.201 32.314-28.764 106.125 25.293 125.768v4.344c0 16.568 13.432 30 30 30s30-13.432 30-30v-1.662c14.779-4.174 26.686-11.719 34.863-20.033 11.619-11.813 11.461-30.807-0.354-42.426-11.809-11.611-30.787-11.457-42.404 0.334-1.674 1.635-10.916 9.342-30.924 3.314-7.988-2.406-10.135-10.688-10.602-13.17-0.975-5.18 0.414-8.672 1.158-9.256 11.313-8.875 32.387-16.984 51.512-23.744z" />
<glyph unicode="&#xf104;" glyph-name="3770171" d="M994-2c16.568 0 30-13.432 30-30s-13.432-30-30-30h-868v-36c0-16.568-13.432-30-30-30s-30 13.432-30 30v36h-36c-16.568 0-30 13.432-30 30s13.432 30 30 30h36v868c0 16.568 13.432 30 30 30s30-13.432 30-30v-100h34c16.568 0 30-13.432 30-30s-13.432-30-30-30h-34v-68h34c16.568 0 30-13.432 30-30s-13.432-30-30-30h-34v-68h34c16.568 0 30-13.432 30-30s-13.432-30-30-30h-34v-68h34c16.568 0 30-13.432 30-30s-13.432-30-30-30h-34v-68h34c16.568 0 30-13.432 30-30s-13.432-30-30-30h-34v-68h34c16.568 0 30-13.432 30-30s-13.432-30-30-30h-34v-68h132v610c0 16.568 13.432 30 30 30h128c16.568 0 30-13.432 30-30v-610h68v354c0 16.568 13.432 30 30 30h128c16.568 0 30-13.432 30-30v-354h68v98c0 16.568 13.432 30 30 30h128c16.568 0 30-13.432 30-30v-98h36zM318-2h68v580h-68v-580zM574-2h68v324h-68v-324zM830-2h68v68h-68v-68zM824.546 349.030l-493.762 495.756c-11.715 11.717-11.715 30.713 0 42.428 11.717 11.713 30.713 11.713 42.428 0l493.76-495.758c3.32 12.955 15.037 22.545 29.027 22.545 16.568 0 30-13.432 30-30 0-69.266 0.41-65.955-0.934-71.312-2.281-9.084-8.793-16.773-17.588-20.402-7.422-3.082-8.109-2.285-75.479-2.285-16.568 0-30 13.432-30 30 0 13.99 9.59 25.707 22.547 29.029z" />
<glyph unicode="&#xf105;" glyph-name="3770172" d="M948.542 66.797c20.799-99.295-54.926-194.797-156.607-194.797h-559.876c-101.453 0-177.439 95.291-156.598 194.797 113.359 541.186-17.646-84.246 85.074 406.158-34.293 14.029-58.525 47.742-58.525 87.025 0 51.832 42.168 93.998 93.998 93.998h198.266l-20.939 52.162c-27.199-1.508-52.873 8.445-71.797 27.371-36.738 36.736-36.736 98.195 0 134.934s96.201 36.734 132.932 0c0 0.199 27.533-26.344 27.533-68.467 0-26.92-11.283-52.898-32.988-71.482l29.912-74.516h106.16l29.906 74.516c-42.338 36.242-43.725 101.684-5.459 139.949 36.734 36.738 96.199 36.734 132.932 0 36.738-36.738 36.736-98.197 0-134.934-18.996-18.996-44.701-28.873-71.793-27.369l-20.934-52.16h198.258c51.83 0 93.998-42.166 93.998-93.998 0-39.283-24.23-72.996-58.525-87.025 4.383-20.922 73.088-348.936 85.074-406.162zM631.958 826.022c-21.195-21.191-6.404-60.041 24.041-60.041 18.793 0 34 15.211 34 34 0 18.793-15.213 35.998-34 35.998-14.783 0-24.041-9.738-24.041-9.957zM334.004 799.98c0-30.096 36.643-45.438 58.041-24.041 13.291 13.289 13.289 36.797 0 50.082-21.197 21.193-58.041 4.402-58.041-26.041zM803.628 465.986h-583.254l-70.734-337.706c59.52-12.244 145.752-25.785 254.116-31.467 8.248-0.432 15.951-4.246 21.297-10.541 45.543-53.643 128.283-53.729 173.898 0 5.344 6.295 13.049 10.109 21.297 10.541 108.365 5.682 194.596 19.223 254.116 31.467zM827.994 593.984h-222.336l-27.291-67.998h249.626c18.748 0 34 15.252 34 33.998 0 18.748-15.252 34-34 34zM196.008 593.984c-18.748 0-34-15.252-34-34 0-18.746 15.252-33.998 34-33.998h317.706l27.291 67.998h-344.996zM232.068-68.002h559.87c63.42 0 110.902 60.311 97.873 122.508l-3.148 15.045c-59.553-12.254-144.729-25.75-251.016-31.975-68.031-68.742-179.217-68.785-247.29 0-106.285 6.227-191.463 19.723-251.014 31.975l-3.148-15.039c-13.031-62.213 34.459-122.514 97.873-122.514zM481.724 146.201c-47.088 13.24-81.721 56.533-81.721 107.797 0 52.498 34.467 94.35 81.717 107.703v22.449c0 16.568 13.434 30 30 30 16.568 0 30-13.432 30-30v-22.188c11.531-3.164 22.648-8.193 32.887-15.102 13.734-9.268 17.355-27.912 8.090-41.646-9.268-13.734-27.918-17.355-41.646-8.090-34.352 23.176-81.049-1.525-81.049-43.129 0-27.898 22.092-50.725 49.697-51.926 2.258 0.15 2.016 0.121 3.84 0.010 11.391 0.352 20.516 4.461 27.090 12.322 10.625 12.713 29.547 14.398 42.256 3.77 12.713-10.627 14.398-29.547 3.771-42.256-11.92-14.256-27.359-24.305-44.934-29.592v-18.33c0-16.566-13.432-29.998-30-29.998-16.566 0-29.998 13.432-29.998 29.998v18.207z" />
<glyph unicode="&#xf106;" glyph-name="3770173" d="M735.976 896c157.701 0 288-130.299 288-288s-130.299-286-288-286c-68.068 0-130.645 23.916-179.809 63.77l-81.225-81.223c18.838-36.799 12.893-83.111-17.871-113.877l-290.002-290c-18.4-18.404-42.9-28.67-69.301-28.67-44.48 0.051-68.127 28.67-69.125 28.67-38.162 38.164-38.162 100.262 0 138.426l290.002 290c30.764 30.766 77.078 36.713 113.873 17.877l81.225 81.223c-39.852 49.16-63.768 111.736-63.768 179.805 0 157.701 128.297 288 286 288zM414.646 233.096c15.891 15.893 13.609 41.246-0.023 53.592-14.77 14.752-38.787 14.744-53.551-0.018l-290-290c-23.609-23.609-7.146-64.67 26.807-64.67 10.107 0 19.611 3.939 26.766 11.096zM735.976 382c124.617 0 228 101.383 228 226s-103.383 228-228 228c-124.619 0-226-103.383-226-228s101.381-226 226-226zM769.266 637.508c79.070-27.947 69.438-133.109-3.252-159.391v-6.27c0-16.568-13.432-30-30-30s-30 13.432-30 30v2.879c-13.82 2.426-26.449 7.598-42.404 18.033-13.863 9.070-17.752 27.662-8.682 41.527 9.070 13.867 27.662 17.752 41.527 8.684 14.625-9.566 19.363-10.313 39.355-10.174 19.299 0.127 26.992 15.277 28.492 24.207 1.348 8.016-0.166 18.678-15.035 23.932-24.908 8.807-50.449 18.91-68.543 33.102-41.203 32.316-28.764 106.127 25.291 125.77v4.344c0 16.568 13.432 30 30 30s30-13.432 30-30v-1.662c14.781-4.174 26.686-11.719 34.865-20.035 11.617-11.811 11.459-30.805-0.355-42.424-11.807-11.611-30.785-11.457-42.404 0.334-1.674 1.635-10.916 9.34-30.924 3.314-7.986-2.406-10.133-10.688-10.602-13.17-0.975-5.18 0.414-8.672 1.158-9.256 11.314-8.875 32.389-16.984 51.512-23.744z" />
<glyph unicode="&#xf107;" glyph-name="3770174" d="M994 446c16.568 0 30-13.432 30-30v-192c0-16.568-13.432-30-30-30h-40v-232c0-49.627-40.373-90-90-90h-774c-49.627 0-90 40.373-90 90v586c0 49.627 40.373 90 90 90h104v168c0 49.627 40.373 90 90 90h424c49.627 0 90-40.373 90-90v-168h66c49.627 0 90-40.373 90-90v-102h40zM738 806c0 16.543-13.457 30-30 30h-198v-198h228v168zM450 836h-68v-198h68v198zM254 806v-168h68v198h-38c-16.543 0-30-13.457-30-30zM60-38c0-16.543 13.457-30 30-30h40v646h-40c-16.543 0-30-13.457-30-30v-586zM864-68c16.543 0 30 13.457 30 30v40h-704v-70h674zM894 62v132h-110c-69.477 0-126 56.523-126 126s56.523 126 126 126h110v102c0 16.543-13.457 30-30 30h-674v-516h704zM964 254v132h-180c-36.393 0-66-29.607-66-66s29.607-66 66-66h180z" />
<glyph unicode="&#xf108;" glyph-name="3770175" d="M934 862c49.627 0 90-40.373 90-90v-584c0-49.627-40.373-90-90-90h-290.586l22-132h38.586c16.568 0 30-13.432 30-30s-13.432-30-30-30h-384c-16.568 0-30 13.432-30 30s13.432 30 30 30h38.586l22 132h-290.586c-49.627 0-90 40.373-90 90v584c0 49.627 40.373 90 90 90h844zM604.586-34l-22 132h-141.172l-22-132h185.172zM964 188v584c0 16.543-13.457 30-30 30h-392v-34c0-16.568-13.432-30-30-30s-30 13.432-30 30v34h-392c-16.543 0-30-13.457-30-30v-584c0-16.543 13.457-30 30-30h844c16.543 0 30 13.457 30 30zM416 478c16.568 0 30-13.432 30-30v-128c0-16.568-13.432-30-30-30h-256c-16.568 0-30 13.432-30 30v320c0 16.568 13.432 30 30 30s30-13.432 30-30v-290h68v194c0 16.568 13.432 30 30 30s30-13.432 30-30v-194h68v98c0 16.568 13.432 30 30 30zM720 654c95.943 0 174-78.057 174-174s-78.057-174-174-174c-47.256 0-90.164 18.945-121.553 49.629-1.51 1.322-1.443 1.248-2.82 2.82-30.684 31.389-49.627 74.297-49.627 121.551 0 95.943 78.057 174 174 174zM829.966 510c-10.594 38.781-41.186 69.373-79.967 79.967v-79.967h79.967zM690 589.966c-71.574-19.551-106.031-101.805-68.941-166.482l68.941 68.941v97.541zM663.484 381.058c64.59-37.039 146.902-2.736 166.482 68.941h-97.541z" />
<glyph unicode="&#xf109;" glyph-name="3770176" d="M418.86 293.438c79.086-27.953 69.451-133.135-3.252-159.42v-6.271c0-16.57-13.436-30.006-30.006-30.006-16.572 0-30.006 13.436-30.006 30.006v2.879c-13.822 2.426-26.455 7.6-42.412 18.037-13.867 9.072-17.756 27.668-8.684 41.537 9.072 13.867 27.666 17.754 41.535 8.684 14.627-9.568 19.365-10.314 39.361-10.178 19.305 0.129 26.998 15.281 28.498 24.213 1.348 8.018-0.166 18.682-15.037 23.938-24.912 8.807-50.459 18.914-68.557 33.107-41.211 32.322-28.77 106.146 25.297 125.793v4.344c0 16.572 13.434 30.006 30.006 30.006 16.57 0 30.006-13.434 30.006-30.006v-1.662c14.781-4.174 26.689-11.721 34.869-20.037 11.621-11.814 11.463-30.812-0.354-42.432-11.811-11.615-30.791-11.461-42.412 0.334-1.674 1.633-10.918 9.342-30.93 3.314-7.99-2.406-10.135-10.691-10.604-13.174-0.975-5.18 0.414-8.674 1.158-9.258 11.316-8.877 32.395-16.986 51.521-23.748zM963.672 478.116c16.572 0 30.006-13.434 30.006-30.006v-546.104c0-16.572-13.434-30.006-30.006-30.006h-600.924c-95.855 0-187.033 43.375-250.154 115.514-88.924 101.625-107.541 246.766-47.15 367.538 0.543 1.094 37.33 65.785 130.084 229.012v113.012l-76.748 155.496c-7.307 14.607-1.582 32.379 12.879 39.979 14.297 7.51 31.938 2.355 39.959-11.582 1.123-1.582 12.992-16.779 53.916-16.779 41.637 0 53.189 15.727 53.949 16.836 11.941 19.588 40.307 19.396 52.131 0 0.76-1.111 12.313-16.836 53.949-16.836 41.639 0 53.191 15.727 53.951 16.836 11.936 19.584 40.303 19.398 52.127 0 0.762-1.111 12.314-16.836 53.953-16.836 40.922 0 52.791 15.195 53.916 16.779 8.025 13.939 25.67 19.094 39.957 11.582 14.461-7.598 20.184-25.369 12.879-39.979l-76.746-155.494v-113.016l60.203-105.945h327.87zM255.54 674.152v-68.014h260.048v68.014h-260.048zM305.542 824.784c-27.318-17.949-63.477-22.51-95.77-20.012l34.303-70.605h282.97l34.303 70.605c-32.256-2.494-68.434 2.047-95.775 20.012-16.463-10.816-41.896-20.605-80.014-20.605-38.125 0-63.557 9.791-80.018 20.605zM408.376-67.988c200.408 0 334.568 213.066 243.976 395.506-2.551 4.488-117.336 206.492-124.221 218.61h-285.138l-124.221-218.608c-90.555-182.369 43.469-395.508 243.974-395.508h45.629zM933.666-67.988v82.012c-38.797-10.594-71.416-43.213-82.008-82.012h82.008zM933.666 75.443v201.228c-71.961 12.559-130.871 69.471-143.43 141.432h-120.334c37.363-65.75 35.256-61.998 35.779-63.051 74.174-148.346 27.395-329.19-106.799-423.042h191.354c12.559 71.961 71.469 130.873 143.43 143.432zM933.666 338.094v80.012h-82.008c10.592-38.799 43.209-69.42 82.008-80.012z" />
<glyph unicode="&#xf10a;" glyph-name="3770177" d="M974.942 292.432c69.889-52.209 64.039-158.629-10.852-203l-323.2-190.354c-50.438-29.883-109.922-34.678-162.838-16.143l-237.602 83.152-199.75-76.096c-15.482-5.893-32.812 1.873-38.713 17.355-5.898 15.48 1.873 32.814 17.355 38.713l209.994 79.998c6.615 2.52 13.906 2.619 20.59 0.281l247.954-86.777c37.398-13.102 78.398-9.027 112.492 11.174l323.2 190.354c18.74 11.102 30.424 31.604 30.424 53.467 0 41.512-39.867 71.449-79.875 59.611-1.443-0.424-102.533-23.393-328.478-74.805 18.043-82.713-66.045-150.318-142.834-115.754l-152.695 68.711c-15.107 6.799-21.844 24.559-15.047 39.668s24.557 21.848 39.668 15.045l152.695-68.713c39.482-17.77 78.395 27.729 51.949 64.975-4.271 5.686-9.963 10.334-16.695 13.365l-176.592 79.225c-35.549 15.994-76.199 15.797-111.564-0.52l-142.080-64.654c-15.082-6.854-32.869-0.197-39.73 14.879-6.863 15.082-0.201 32.867 14.879 39.73l141.936 64.588c50.994 23.533 109.783 23.816 161.15 0.703l176.59-79.225c10.008-4.504 19.045-10.504 26.914-17.65l343.902 78.254c37.059 10.637 75.949 3.531 106.854-19.559zM142.018 418.014c-16.568 0-29.998 13.432-29.998 29.998v417.988c0 16.568 13.432 30 29.998 30h737.98c16.568 0 30-13.432 30-30v-417.988c0-16.566-13.432-29.998-30-29.998h-737.98zM315.416 836.002c-12.672-72.613-70.51-131.889-143.4-143.732v-72.525c72.891-11.844 130.729-69.121 143.4-141.732h393.182c12.557 71.943 69.455 128.844 141.4 141.4v73.189c-71.945 12.555-128.844 71.453-141.4 143.4h-393.182zM174.018 478.012h79.992c-10.59 38.789-41.201 69.402-79.992 79.992v-79.992zM849.998 478.012v79.992c-38.789-10.59-69.402-41.201-79.99-79.992h79.99zM849.998 836.002h-79.99c10.588-38.791 41.199-71.402 79.99-81.992v81.992zM254.010 836.002h-79.992v-81.992c38.789 10.59 69.402 43.201 79.992 81.992zM512.008 546.010c-60.652 0-109.996 49.344-109.996 109.996s49.344 109.998 109.996 109.998 109.998-49.346 109.998-109.998-49.346-109.996-109.998-109.996zM512.008 706.006c-27.568 0-49.998-22.43-49.998-50 0-27.568 22.43-49.998 49.998-49.998 27.57 0 49.998 22.43 49.998 49.998 0 27.57-22.428 50-49.998 50z" />
<glyph unicode="&#xf10b;" glyph-name="3770178" d="M621.762 526.772c0-60.527-49.244-109.77-109.771-109.77s-109.77 49.242-109.77 109.77 49.242 109.771 109.77 109.771 109.771-49.244 109.771-109.771zM462.096 526.772c0-27.512 22.383-49.895 49.895-49.895 27.514 0 49.896 22.383 49.896 49.895 0 27.514-22.383 49.896-49.896 49.896s-49.895-22.383-49.895-49.896zM1022.584-102.35c-1.629-10.869-9.084-20.062-19.646-23.789-7.311-2.592 58.619-1.719-971.942-1.719-15.785 0-28.73 12.256-29.854 27.74-0.078 1.057-0.268 612.674 0.109 616.152 0.953 8.689 5.502 16.031 11.9 20.783 18.787 14.035 231.69 167.529 261.334 189.156v140.088c0 16.533 13.404 29.938 29.938 29.938h415.13c16.533 0 29.938-13.404 29.938-29.938v-140.109c27.486-20.045 259.656-187.318 263.84-191.191 4.938-4.939 8.373-10.539 9.34-18.199 0.285-2.26 0.541-614.708-0.088-618.912zM60.934-38.789c16.766 12.314 320.072 237.068 335.114 248.116l-335.114 244.564v-492.68zM446.67 246.506l47.598 34.959c10.547 7.746 24.898 7.746 35.445 0l47.598-34.961 112.307 81.963v366.506c-72.020 12.166-128.596 69.623-141.070 141.152h-73.113c-12.5-71.674-69.186-129.008-141.070-141.152v-366.504zM627.934 209.326c15.043-11.047 318.348-235.8 335.114-248.116v492.68zM942.124 512.746c-110.904 80.516-153.637 111.025-192.631 139.219v-279.8zM689.62 836.124h-79.857c10.469-38.363 40.729-69.959 79.857-80.064v80.064zM334.364 836.124v-80.064c39.129 10.105 69.389 41.701 79.855 80.064h-79.855zM274.488 651.976c-40.158-29.033-81.646-58.656-192.629-139.23l192.629-140.582v279.812zM122.334-67.984h779.314c-148.064 108.746-103.346 77.9-389.658 288.176-40.955-30.080-349.286-258.524-389.656-288.176z" />
<glyph unicode="&#xf10c;" glyph-name="3770179" d="M1015.212 846.214c11.715-11.717 11.715-30.713 0-42.428l-24.605-24.604 7.193-7.191c19.512-19.514 19.51-51.088 0-70.596l-68.799-68.797c7.449-7.883 15.529-16.451 27.141-28.707 28.209-28.564 26.5-74.963-3.471-101.42l-148.809-131.283c-5.701-5.031-12.783-7.504-19.834-7.504-27.455 0-40.615 34.184-19.857 52.496l148.801 131.275c4.197 3.707 4.49 10.268 0.436 14.318-0.885 0.885-24.986 26.408-26.848 28.379l-249.154-249.154h34.594c16.568 0 30-13.432 30-30v-368c0-16.568-13.432-30-30-30h-642c-16.568 0-30 13.432-30 30v368c0 16.568 13.432 30 30 30h368.736c61.25 78.070 58.172 74.273 59.912 76.037 1.543 1.566 403.206 403.22 411.75 411.766 19.51 19.514 51.088 19.506 70.594-0.002l7.189-7.191 24.604 24.605c11.717 11.713 30.713 11.713 42.428 0zM411.72 242.718c4.416-4.414 11.453-4.836 16.369-0.982l91.748 71.98-37.123 37.123c-1.318-1.68-64.432-82.123-71.98-91.746-3.855-4.918-3.432-11.955 0.986-16.375zM642-27v307.998h-66.656l-110.217-86.471c-19.932-15.637-46.4-19.619-69.998-10.826l-21.916-21.916c-11.717-11.715-30.709-11.715-42.428 0-11.715 11.717-11.715 30.713 0 42.428l21.912 21.91c-6.574 17.643-6.092 37.414 1.715 54.877h-294.412v-308h582zM564.98 353.426l279.736 279.734c-9.742 9.754-24.961 24.938-42.572 42.533l-279.716-279.714zM887.14 675.588l61.104 61.105c-32.748 32.75 11.738-11.74-42.553 42.553l-61.123-61.125c20.15-20.131 32.77-32.721 42.572-42.533zM160 153c-16.568 0-30 13.432-30 30s13.432 30 30 30h64c16.568 0 30-13.432 30-30s-13.432-30-30-30h-64zM544 101c16.568 0 30-13.432 30-30s-13.432-30-30-30h-384c-16.568 0-30 13.432-30 30s13.432 30 30 30h384z" />
<glyph unicode="&#xf10d;" glyph-name="3770180" d="M994 896c16.568 0 30-13.432 30-30v-546c0-16.568-13.432-30-30-30h-452v-68h50c16.568 0 30-13.432 30-30v-210c0-60.654-49.346-110-110-110s-110 49.346-110 110v210c0 16.568 13.432 30 30 30h50v68h-452c-16.568 0-30 13.432-30 30v546c0 16.568 13.432 30 30 30h964zM562-18v180h-100v-180c0-27.57 22.43-50 50-50s50 22.43 50 50zM964 836h-81.996c10.592-38.793 43.203-71.404 81.996-81.994v81.994zM820.596 836h-128.121c162.24-121.305 161.779-365.040 0-486h128.121c12.557 71.947 71.457 128.848 143.404 141.404v201.192c-71.947 12.557-130.848 71.457-143.404 143.404zM270 592c0-133.439 108.561-242 242-242s242 108.561 242 242-108.561 244-242 244-242-110.561-242-244zM331.526 350c-162.24 121.305-161.779 365.040 0 486h-128.121c-12.557-71.947-71.457-130.848-143.404-143.404v-201.192c71.947-12.557 130.848-69.457 143.404-141.404h128.121zM60 836v-81.994c38.793 10.59 71.404 43.201 81.996 81.994h-81.996zM60 350h81.996c-10.592 38.789-43.203 69.404-81.996 79.994v-79.994zM964 350v79.994c-38.793-10.59-71.406-41.201-81.996-79.994h81.996zM545.902 621.508c79.070-27.947 69.438-133.109-3.252-159.391v-6.27c0-16.568-13.432-30-30-30s-30 13.432-30 30v2.879c-13.82 2.426-26.451 7.598-42.404 18.033-13.863 9.070-17.752 27.662-8.682 41.527 9.070 13.867 27.662 17.752 41.527 8.684 14.625-9.566 19.361-10.313 39.354-10.174 19.301 0.127 26.992 15.277 28.492 24.207 1.348 8.016-0.166 18.678-15.033 23.932-24.908 8.807-50.451 18.91-68.545 33.102-41.201 32.316-28.764 106.127 25.293 125.77v4.344c0 16.568 13.432 30 30 30s30-13.432 30-30v-1.662c14.779-4.174 26.686-11.719 34.863-20.035 11.619-11.811 11.461-30.805-0.354-42.424-11.809-11.611-30.785-11.457-42.404 0.334-1.674 1.635-10.916 9.34-30.924 3.314-7.988-2.406-10.135-10.688-10.602-13.17-0.975-5.18 0.414-8.672 1.158-9.256 11.313-8.875 32.387-16.984 51.512-23.744z" />
<glyph unicode="&#xf10e;" glyph-name="3770181" d="M934 798c49.627 0 90-40.373 90-90v-746c0-49.627-40.373-90-90-90h-844c-49.627 0-90 40.373-90 90v746c0 49.627 40.373 90 90 90h72v68c0 16.568 13.432 30 30 30s30-13.432 30-30v-68h100v68c0 16.568 13.432 30 30 30s30-13.432 30-30v-68h100v68c0 16.568 13.432 30 30 30s30-13.432 30-30v-68h100v68c0 16.568 13.432 30 30 30s30-13.432 30-30v-68h100v68c0 16.568 13.432 30 30 30s30-13.432 30-30v-68h72zM90 738c-16.543 0-30-13.457-30-30v-38h904v38c0 16.543-13.457 30-30 30h-844zM934-68c16.543 0 30 13.457 30 30v648h-904v-648c0-16.543 13.457-30 30-30h844zM512 558c157.701 0 286-128.299 286-286s-128.299-286-286-286-286 128.299-286 286 128.299 286 286 286zM512 46c124.617 0 226 101.383 226 226s-101.383 226-226 226-226-101.383-226-226 101.383-226 226-226zM545.234 301.358c79.070-27.947 69.438-133.109-3.252-159.389v-6.271c0-16.566-13.432-30-30-30s-30 13.434-30 30v2.879c-13.82 2.426-26.451 7.598-42.404 18.033-13.863 9.070-17.752 27.662-8.682 41.529 9.070 13.865 27.662 17.752 41.527 8.682 14.625-9.566 19.361-10.313 39.354-10.174 19.301 0.127 26.992 15.277 28.492 24.207 1.348 8.016-0.166 18.678-15.033 23.932-24.908 8.807-50.451 18.91-68.545 33.104-41.201 32.314-28.764 106.125 25.293 125.768v4.344c0 16.568 13.432 30 30 30s30-13.432 30-30v-1.662c14.779-4.174 26.686-11.719 34.863-20.033 11.619-11.812 11.461-30.807-0.354-42.424-11.809-11.613-30.787-11.459-42.404 0.334-1.674 1.633-10.916 9.34-30.924 3.313-7.988-2.406-10.135-10.688-10.602-13.17-0.975-5.18 0.414-8.672 1.158-9.256 11.313-8.875 32.387-16.984 51.512-23.744z" />
<glyph unicode="&#xf10f;" glyph-name="3770182" d="M272.012 658.008c-12.973 0-24.475 8.334-28.512 20.662-4.035 12.328 0.311 25.855 10.771 33.525l239.992 177.994c10.559 7.746 24.922 7.746 35.48 0l96.258-72.588v14.4c0 16.568 13.432 30 29.998 30 16.568 0 30-13.432 30-30v-58.398l83.738-61.406c10.461-7.67 14.805-21.197 10.77-33.525-4.037-12.326-15.539-20.664-28.51-20.664h-18v-257.994c0-16.566-13.432-29.998-29.998-29.998h-383.99c-16.566 0-29.998 13.432-29.998 29.998v257.994h-18zM478.006 430.014h67.998v99.996h-67.998v-99.996zM674 430.014v227.994h-323.99v-227.994h67.998v129.996c0 16.568 13.432 30 30 30h127.996c16.566 0 29.998-13.432 29.998-30v-129.996h67.998zM512.006 828.798l-148.357-110.793h296.712zM974.938 292.434c69.9-52.221 64.037-158.635-10.855-203l-323.198-190.354c-50.367-29.842-109.857-34.703-162.836-16.143l-237.6 83.152-199.75-76.096c-15.482-5.893-32.816 1.873-38.713 17.355-5.898 15.48 1.869 32.814 17.354 38.713l209.994 79.996c6.613 2.52 13.906 2.621 20.588 0.283l247.954-86.777c37.4-13.102 78.402-9.029 112.496 11.174l323.198 190.354c18.74 11.102 30.424 31.604 30.424 53.467 0 41.373-39.752 71.479-79.873 59.609-1.438-0.422-103.455-23.6-328.478-74.803 18.066-82.805-66.105-150.285-142.834-115.754l-152.693 68.711c-15.109 6.799-21.846 24.557-15.047 39.666 6.799 15.111 24.553 21.848 39.668 15.047l152.693-68.713c28.68-12.908 60.578 8.201 60.578 39.172 0 16.9-9.982 32.262-25.326 39.168l-176.59 79.225c-35.547 15.992-76.199 15.797-111.562-0.521l-142.082-64.652c-15.080-6.861-32.867-0.201-39.729 14.879-6.865 15.082-0.203 32.867 14.879 39.73l141.936 64.586c50.994 23.533 109.783 23.818 161.146 0.705l176.592-79.225c10.008-4.504 19.043-10.506 26.914-17.65l343.902 78.252c37.059 10.639 75.947 3.533 106.852-19.557z" />
<glyph unicode="&#xf110;" glyph-name="3770183" d="M866 62c87.119 0 158-72.881 158-160 0-16.561-13.439-30-30-30h-964c-16.561 0-30 13.439-30 30v964c0 16.561 13.439 30 30 30h738c16.561 0 30-13.439 30-30v-367.696l73.389-73.391 12.727 12.729c11.717 11.715 30.713 11.715 42.428 0 11.715-11.717 11.715-30.711 0-42.426-3.012-3.012-121.484-121.486-128.543-128.545v-204.672h68zM758.252 311.778c53.41 53.408 38.561 38.559 70.713 70.711-312.692 312.686 96.119-96.119-206.476 206.474l-70.711-70.711zM60 836v-904h488.856c14.041 72.82 78.281 130 155.141 130h34v146.719c-11.434-5.867-25.555-3.871-34.9 5.477-11.715 11.717-11.715 30.711 0 42.426l12.729 12.729-82.023 82.027-48.084-48.084 24.041-24.043c11.342-11.342 11.756-29.598 0.941-41.441l-183.645-201.136c-41.115-45.029-111.090-46.279-153.877-3.496-43.018 43.018-41.293 112.982 3.494 153.879l201.136 183.645c11.848 10.814 30.102 10.4 41.441-0.941l24.043-24.041 48.084 48.084-82.027 82.025-12.729-12.729c-11.715-11.717-30.711-11.715-42.426 0-11.715 11.717-11.715 30.711 0 42.426l181.021 181.021c11.715 11.715 30.711 11.715 42.426 0 11.715-11.717 11.715-30.711 0-42.428l-12.729-12.727 73.086-73.086v277.696h-678zM547.062 257.094l-49.967 49.967-179.965-164.316c-9.459-8.635-14.826-20.434-15.119-33.225-0.6-26.418 20.855-48.098 47.49-47.51 12.803 0.293 24.609 5.66 33.244 15.119zM610.72-67.92c30.309 0 132.23-0.080 348.58-0.080-12.701 39.42-49.721 70-93.301 70h-162c-43.539 0-80.561-30.539-93.279-69.92zM289.23 613.358c79.070-27.947 69.438-133.109-3.252-159.389v-6.271c0-16.566-13.432-30-30-30s-30 13.434-30 30v2.879c-13.82 2.426-26.451 7.598-42.404 18.033-13.863 9.070-17.752 27.662-8.682 41.529 9.070 13.865 27.662 17.752 41.527 8.682 14.625-9.566 19.361-10.313 39.354-10.174 19.301 0.127 26.992 15.277 28.492 24.207 1.348 8.016-0.166 18.678-15.033 23.932-24.908 8.807-50.451 18.91-68.545 33.104-41.201 32.314-28.764 106.125 25.293 125.768v4.344c0 16.568 13.432 30 30 30s30-13.432 30-30v-1.662c14.779-4.174 26.686-11.719 34.863-20.033 11.619-11.813 11.461-30.807-0.354-42.424-11.809-11.613-30.787-11.459-42.404 0.334-1.674 1.633-10.916 9.34-30.924 3.313-7.988-2.406-10.135-10.688-10.602-13.17-0.975-5.18 0.414-8.672 1.158-9.256 11.313-8.875 32.387-16.984 51.512-23.744z" />
<glyph unicode="&#xf111;" glyph-name="3770184" d="M933.988 701.978c49.621 0 89.998-40.379 89.998-89.998v-455.988c0-49.617-40.379-89.998-89.998-89.998h-290.572l22-133.996h38.578c16.559 0 30-13.439 30-29.998 0-16.561-13.441-30-30-30h-383.99c-16.561 0-30 13.439-30 30 0 16.559 13.439 29.998 30 29.998h38.578l22 133.996h-290.572c-49.619 0-89.998 40.381-89.998 89.998v455.988c0 49.619 40.379 89.998 89.998 89.998h151.756c10.1 28.82 24.9 56.238 44.26 81.199 116.727 150.547 335.4 150.322 451.968-0.021 19.359-24.959 34.158-52.357 44.238-81.178h151.756zM333.444 746.398c-38.439-49.539-54.277-111.318-44.918-172.416h247.212c-2.359 2.699-5.879 5.119-10.92 6.9-24.92 8.799-50.459 18.898-68.559 33.098-41.203 32.338-28.738 106.121 25.301 125.758v4.34c0 16.58 13.418 29.998 29.998 29.998 16.561 0 30-13.418 30-29.998v-1.66c14.779-4.16 26.68-11.721 34.859-20.020 11.619-11.82 11.459-30.818-0.361-42.439-11.799-11.6-30.779-11.459-42.398 0.34-1.68 1.641-10.92 9.34-30.92 3.32-7.979-2.42-10.139-10.699-10.6-13.18-0.979-5.18 0.42-8.66 1.16-9.26 11.32-8.859 32.379-16.979 51.5-23.738 30.158-10.641 49.998-34.641 54.479-63.459h136.195c9.361 61.098-6.479 122.857-44.898 172.416-92.693 119.541-264.602 119.383-357.13 0zM419.422-68.002h185.154l-21.998 133.996h-141.158zM963.988 155.992v455.988c0 16.541-13.461 30-30 30h-137.836c2.68-22.4 2.639-45.219-0.121-67.998h51.959c16.561 0 30-13.439 30-30 0-16.559-13.439-29.998-30-29.998h-671.982c-16.561 0-30 13.439-30 29.998 0 16.561 13.439 30 30 30h51.959c-2.76 22.779-2.801 45.598-0.121 67.998h-137.836c-16.539 0-30-13.459-30-30v-455.988c0-16.539 13.461-29.998 30-29.998h843.978c16.539 0 30 13.459 30 29.998zM286.004 343.948c11.754 8.85 28.514 7.957 39.213-2.746 11.717-11.715 11.717-30.709 0-42.424-52.66-52.662-49.797-50.422-55.070-53.242-9.688-5.178-21.545-4.674-30.797 1.508-3.359 2.246-0.443-0.379-52.555 51.732-11.715 11.715-11.715 30.709 0 42.424 10.699 10.705 27.459 11.598 39.211 2.748v72.039c0 16.568 13.432 30 30 30 16.566 0 29.998-13.432 29.998-30v-72.039zM541.998 295.95c11.754 8.85 28.514 7.955 39.213-2.746 11.717-11.715 11.717-30.709 0-42.424-52.66-52.664-49.799-50.422-55.070-53.244-9.688-5.178-21.545-4.674-30.797 1.508-3.359 2.246-0.443-0.377-52.555 51.734-11.717 11.715-11.717 30.709 0 42.424 10.699 10.703 27.459 11.598 39.211 2.748v120.037c0 16.568 13.432 30 29.998 30 16.568 0 30-13.432 30-30v-120.037zM797.992 343.948c11.754 8.85 28.514 7.957 39.213-2.746 11.715-11.715 11.715-30.709 0-42.424-52.66-52.662-49.799-50.422-55.070-53.242-9.688-5.178-21.547-4.674-30.797 1.508-3.361 2.246-0.445-0.379-52.555 51.732-11.717 11.715-11.717 30.709 0 42.424 10.699 10.705 27.459 11.598 39.211 2.748v72.039c0 16.568 13.432 30 29.998 30 16.568 0 30-13.432 30-30v-72.039z" />
<glyph unicode="&#xf112;" glyph-name="3770185" d="M587.552 40.146c39.881-25.17 66.447-71.602 66.447-122.146v-16c0-16.568-13.432-30-30-30h-224c-16.568 0-30 13.432-30 30v16c0 50.545 26.566 96.977 66.447 122.146-11.582 15.625-18.447 34.951-18.447 55.854 0 51.832 42.168 94 94 94s94-42.168 94-94c0-20.902-6.865-40.229-18.447-55.854zM478 96c0-18.748 15.252-34 34-34s34 15.252 34 34-15.252 34-34 34-34-15.252-34-34zM431.196-68h161.609c-6.662 38.57-40.363 70-80.805 70s-74.143-31.43-80.805-70zM955.552 40.146c39.881-25.17 66.447-71.602 66.447-122.146v-16c0-16.568-13.432-30-30-30h-224c-16.568 0-30 13.432-30 30v16c0 50.545 26.566 96.977 66.447 122.146-11.582 15.625-18.447 34.951-18.447 55.854 0 51.832 42.168 94 94 94s94-42.168 94-94c0-20.902-6.865-40.229-18.447-55.854zM846 96c0-18.748 15.252-34 34-34s34 15.252 34 34-15.252 34-34 34-34-15.252-34-34zM799.196-68h161.609c-6.662 38.57-40.363 70-80.805 70s-74.143-31.43-80.805-70zM219.552 40.146c39.881-25.17 66.447-71.602 66.447-122.146v-16c0-16.568-13.432-30-30-30h-224c-16.568 0-30 13.432-30 30v16c0 50.545 26.566 96.977 66.447 122.146-11.582 15.625-18.447 34.951-18.447 55.854 0 51.832 42.168 94 94 94s94-42.168 94-94c0-20.902-6.865-40.229-18.447-55.854zM110 96c0-18.748 15.252-34 34-34s34 15.252 34 34-15.252 34-34 34-34-15.252-34-34zM63.195-68h161.609c-6.662 38.57-40.363 70-80.805 70s-74.143-31.43-80.805-70zM144 242c-16.568 0-30 13.432-30 30v80c0 16.568 13.432 30 30 30h192.938c-67.447 52.365-110.938 134.193-110.938 226 0 157.701 128.299 288 286 288s286-130.299 286-288c0-91.807-43.49-173.635-110.938-226h192.938c16.568 0 30-13.432 30-30v-80c0-16.568-13.432-30-30-30s-30 13.432-30 30v50h-308v-50c0-16.568-13.432-30-30-30s-30 13.432-30 30v50h-308v-50c0-16.568-13.432-30-30-30zM286 608c0-124.617 101.383-226 226-226s226 101.383 226 226-101.383 228-226 228-226-103.383-226-228zM545.29 637.508c79.070-27.947 69.439-133.109-3.252-159.391v-6.27c0-16.568-13.432-30-30-30-16.566 0-30 13.432-30 30v2.879c-13.818 2.426-26.449 7.598-42.402 18.033-13.865 9.070-17.752 27.662-8.684 41.527 9.070 13.867 27.662 17.752 41.529 8.684 14.623-9.566 19.361-10.313 39.354-10.174 19.301 0.127 26.992 15.277 28.492 24.207 1.348 8.016-0.166 18.678-15.033 23.932-24.908 8.807-50.451 18.91-68.545 33.102-41.201 32.316-28.764 106.127 25.291 125.77v4.344c0 16.568 13.434 30 30 30 16.568 0 30-13.432 30-30v-1.662c14.781-4.174 26.688-11.719 34.865-20.035 11.617-11.811 11.459-30.805-0.354-42.424-11.809-11.611-30.787-11.457-42.404 0.334-1.674 1.635-10.916 9.34-30.924 3.314-7.988-2.406-10.135-10.688-10.604-13.17-0.973-5.18 0.414-8.672 1.158-9.256 11.314-8.875 32.389-16.984 51.512-23.744z" />
<glyph unicode="&#xf113;" glyph-name="3770186" d="M702 443.97c171.039 20.352 322-113.76 322-283.97 0-157.701-130.299-288-288-288-68.199 0-130.889 26.008-180.092 66h-525.908c-16.568 0-30 13.432-30 30v898c0 16.568 13.432 30 30 30h642c16.568 0 30-13.432 30-30v-422.030zM60 836v-838h440.44c-106.424 154.27-37.5 369.62 141.561 432.112v405.888h-582zM736-68c124.617 0 226 103.383 226 228s-101.383 226-226 226-226-101.383-226-226 101.383-228 226-228zM544 546h-384c-16.568 0-30 13.432-30 30v160c0 16.568 13.432 30 30 30h384c16.568 0 30-13.432 30-30v-160c0-16.568-13.432-30-30-30zM190 706v-100h324v100h-324zM208 478c16.568 0 30-13.432 30-30s-13.432-30-30-30h-32c-16.568 0-30 13.432-30 30s13.432 30 30 30h32zM368 478c16.568 0 30-13.432 30-30s-13.432-30-30-30h-32c-16.568 0-30 13.432-30 30s13.432 30 30 30h32zM528 478c16.568 0 30-13.432 30-30s-13.432-30-30-30h-32c-16.568 0-30 13.432-30 30s13.432 30 30 30h32zM208 318c16.568 0 30-13.432 30-30s-13.432-30-30-30h-32c-16.568 0-30 13.432-30 30s13.432 30 30 30h32zM368 318c16.568 0 30-13.432 30-30s-13.432-30-30-30h-32c-16.568 0-30 13.432-30 30s13.432 30 30 30h32zM208 158c16.568 0 30-13.432 30-30s-13.432-30-30-30h-32c-16.568 0-30 13.432-30 30s13.432 30 30 30h32zM368 158c16.568 0 30-13.432 30-30s-13.432-30-30-30h-32c-16.568 0-30 13.432-30 30s13.432 30 30 30h32zM769.29 189.508c79.070-27.947 69.439-133.109-3.252-159.391v-6.27c0-16.568-13.432-30-30-30-16.566 0-30 13.432-30 30v2.879c-13.818 2.426-26.449 7.598-42.402 18.033-13.865 9.070-17.752 27.662-8.684 41.527 9.070 13.867 27.662 17.752 41.529 8.684 14.623-9.566 19.361-10.313 39.354-10.174 19.301 0.127 26.992 15.277 28.492 24.207 1.348 8.016-0.166 18.678-15.033 23.932-24.908 8.807-50.451 18.91-68.545 33.102-41.201 32.316-28.764 106.127 25.291 125.77v4.344c0 16.568 13.434 30 30 30 16.568 0 30-13.432 30-30v-1.662c14.781-4.174 26.688-11.719 34.865-20.035 11.617-11.811 11.459-30.805-0.354-42.424-11.809-11.611-30.787-11.457-42.404 0.334-1.674 1.635-10.916 9.34-30.924 3.314-7.988-2.406-10.135-10.688-10.604-13.17-0.973-5.18 0.414-8.672 1.158-9.256 11.314-8.875 32.389-16.984 51.512-23.744z" />
<glyph unicode="&#xf114;" glyph-name="3770187" d="M994 846c16.568 0 30-13.432 30-30v-448c0-16.568-13.432-30-30-30h-260v-326c0-49.627-40.373-90-90-90h-264c-49.627 0-90 40.373-90 90v326h-260c-16.568 0-30 13.432-30 30v448c0 16.568 13.432 30 30 30h964zM350 12c0-16.543 13.457-30 30-30h38v580h-68v-550zM674 12v550h-196v-580h166c16.543 0 30 13.457 30 30zM964 398v388h-904v-388h230v164h-98c-16.568 0-30 13.432-30 30s13.432 30 30 30h640c16.568 0 30-13.432 30-30s-13.432-30-30-30h-98v-164h230zM576 238c16.568 0 30-13.432 30-30v-128c0-16.568-13.432-30-30-30s-30 13.432-30 30v128c0 16.568 13.432 30 30 30z" />
<glyph unicode="&#xf115;" glyph-name="3770188" d="M994 878c16.568 0 30-13.432 30-30v-928c0-16.568-13.432-30-30-30h-964c-16.568 0-30 13.432-30 30v928c0 16.568 13.432 30 30 30h964zM60 818v-740h904v740h-904zM964-50v68h-904v-68h904zM640 702c140.057 0 254-113.943 254-254s-113.943-254-254-254-254 113.943-254 254 113.943 254 254 254zM831.678 478c-12.938 82.998-78.68 148.74-161.678 161.678v-69.316c45.416-11.137 81.225-46.945 92.361-92.361h69.316zM640 382c36.393 0 66 29.607 66 66s-29.607 66-66 66-66-29.607-66-66 29.607-66 66-66zM610 639.678c-82.998-12.938-148.74-78.68-161.678-161.678h69.316c11.137 45.416 46.945 81.225 92.361 92.361v69.316zM448.322 418c12.938-82.998 78.68-148.74 161.678-161.678v69.316c-45.416 11.137-81.225 46.945-92.361 92.361h-69.316zM670 256.322c82.998 12.938 148.74 78.68 161.678 161.678h-69.316c-11.137-45.416-46.945-81.225-92.361-92.361v-69.316zM224 702c51.832 0 94-42.168 94-94 0-41.342-26.84-76.51-64-89.062v-70.938c0-16.568-13.432-30-30-30s-30 13.432-30 30v70.938c-37.16 12.553-64 47.721-64 89.062 0 51.832 42.168 94 94 94zM224 574c18.748 0 34 15.252 34 34s-15.252 34-34 34-34-15.252-34-34 15.252-34 34-34zM256 254c16.568 0 30-13.432 30-30s-13.432-30-30-30h-64c-16.568 0-30 13.432-30 30s13.432 30 30 30h64z" />
<glyph unicode="&#xf116;" glyph-name="3770189" d="M992 482h-18v-420h18c16.568 0 30-13.432 30-30v-130c0-16.568-13.432-30-30-30h-960c-16.568 0-30 13.432-30 30v130c0 16.568 13.432 30 30 30h18v420h-18c-16.568 0-30 13.432-30 30 0 147.912-0.008 125.971 0.023 128.463 0.121 8.191 3.521 15.447 8.797 20.781 5.676 5.65-23.291-6.891 488.494 231.942 8.041 3.752 17.332 3.752 25.373 0l480-226c10.592-4.943 17.313-15.666 17.313-27.186v-128c0-16.568-13.432-30-30-30zM768 62h18v420h-180v-420h18c16.568 0 30-13.432 30-30v-100h84v100c0 16.568 13.432 30 30 30zM400 62h18v420h-180v-420h18c16.568 0 30-13.432 30-30v-100h84v100c0 16.568 13.432 30 30 30zM478 482v-420h68v420h-68zM62 542h900v68h-900v-68zM512 832.896l-344.774-162.896h689.546zM110 482v-420h68v420h-68zM62-68h164v70h-164v-70zM430-68h164v70h-164v-70zM798-68h164v70h-164v-70zM914 62v420h-68v-420h68z" />
<glyph unicode="&#xf117;" glyph-name="3770190" d="M813.994 348.126c117.121-14.799 207.996-115.039 207.996-236.112 0-131.232-106.764-239.996-237.996-239.996-46.586 0-90.885 13.152-129.352 38.184-88.227-50.982-197.219-50.891-285.286 0-38.467-25.031-82.766-38.184-129.352-38.184-131.232 0-237.996 108.764-237.996 239.996 0 121.072 90.875 221.314 207.996 236.112v195.881c0 16.566 13.432 29.998 30 29.998h241.994v52h-63.498c-52.184 0-94.637 42.074-94.637 93.791 0 49.211 38.992 90.535 88.91 93.611 11.418 47.207 53.809 82.592 101.682 82.592 35.918 0 69.137-20.951 88.182-50.809 57.174-4.189 102.408-51.676 102.408-109.443 0-60.514-49.627-109.742-110.629-109.742h-52.418v-52h241.994c16.568 0 30-13.432 30-29.998v-195.881zM383.866 719.796c0-18.633 15.537-33.793 34.639-33.793h175.916c27.918 0 50.629 22.314 50.629 49.744 0 30.184-27.318 53.066-56.312 49.414-15.281-1.959-27.842 6.938-32.426 19.223-11.67 31.268-51.947 42.496-75.055 16.371-8.736-9.879-12.676-24.428-11.090-37.336 2.73-22.221-19.006-39.484-40.014-31.859-22.373 8.131-46.287-8.746-46.287-31.764zM753.996 514.008h-211.996v-69.568c75.498-7.906 142.338-45.316 188.775-100.447 7.658 1.752 15.404 3.133 23.221 4.115v165.9zM482 514.008h-211.996v-165.9c7.816-0.984 15.563-2.363 23.221-4.115 46.439 55.133 113.277 92.541 188.775 100.447v69.568zM240.006-67.98c27.010 0 52.977 5.922 76.686 17.285-94.34 88.334-116.529 228.316-59.805 339.886-105.391 9.871-194.879-73.193-194.879-177.176 0-98.148 79.85-179.996 177.998-179.996zM286.004 160.014c0-124.615 101.381-227.994 225.996-227.994s225.996 103.379 225.996 227.994c0 124.617-101.381 225.996-225.996 225.996s-225.996-101.379-225.996-225.996zM783.994-67.98c98.148 0 177.998 81.848 177.998 179.996 0 104.16-89.678 187.027-194.879 177.176 56.695-111.512 34.572-251.514-59.805-339.886 23.707-11.363 49.676-17.285 76.686-17.285zM545.29 189.369c79.068-27.947 69.438-133.105-3.252-159.385v-6.27c0-16.568-13.432-30-30-30-16.566 0-29.998 13.432-29.998 30v2.879c-13.82 2.426-26.449 7.598-42.404 18.033-13.863 9.070-17.752 27.662-8.682 41.527s27.662 17.752 41.527 8.682c14.623-9.566 19.361-10.313 39.354-10.174 19.299 0.127 26.992 15.277 28.492 24.207 1.348 8.016-0.166 18.678-15.035 23.932-24.906 8.807-50.449 18.91-68.541 33.102-41.201 32.314-28.764 106.123 25.291 125.766v4.344c0 16.568 13.432 30 29.998 30 16.568 0 30-13.432 30-30v-1.664c14.779-4.174 26.686-11.717 34.863-20.033 11.617-11.813 11.461-30.807-0.354-42.424-11.809-11.611-30.785-11.457-42.402 0.334-1.676 1.635-10.916 9.34-30.924 3.314-7.988-2.406-10.135-10.688-10.602-13.17-0.975-5.18 0.414-8.672 1.158-9.256 11.313-8.875 32.387-16.984 51.51-23.744z" />
<glyph unicode="&#xf118;" glyph-name="3770191" d="M934 862c49.627 0 90-40.373 90-90v-584c0-49.627-40.373-90-90-90h-290.586l22-132h38.586c16.568 0 30-13.432 30-30s-13.432-30-30-30h-384c-16.568 0-30 13.432-30 30s13.432 30 30 30h38.586l22 132h-288.586c-49.627 0-92 40.373-92 90v584c0 49.627 42.373 90 92 90h842zM604.586-34l-22 132h-141.172l-22-132h185.172zM964 188v584c0 16.543-13.457 30-30 30h-392v-34c0-16.568-13.432-30-30-30s-30 13.432-30 30v34h-390c-16.543 0-32-13.457-32-30v-584c0-16.543 15.457-30 32-30h842c16.543 0 30 13.457 30 30zM364.856 553.978c48.361-27.045 81.145-78.742 81.145-137.979v-144c0-16.568-13.432-30-30-30h-256c-16.568 0-30 13.432-30 30v144c0 59.236 32.783 110.934 81.145 137.979-43.564 61.789 0.658 148.021 76.855 148.021 76.211 0 120.412-86.242 76.855-148.021zM254 608c0-18.748 15.252-34 34-34s34 15.252 34 34-15.252 34-34 34-34-15.252-34-34zM386 302v114c0 54.037-43.963 98-98 98s-98-43.963-98-98v-114h196zM624.66 296.942c21.729-14.348 15.887-48.77-10.801-54.361-25.217-4.721-44.115 21.418-32.299 43.541 7.861 15.025 27.637 20.982 43.1 10.82zM755.020 295.202c13.682-11.186 14.727-31.852 2.201-44.42-16.6-16.539-45.654-8.693-50.641 15.361-5.279 28.027 26.885 46.625 48.439 29.059zM880.66 296.942c21.896-14.811 15.691-48.809-10.801-54.361-25.113-4.699-44.17 21.314-32.299 43.541 7.852 15.008 27.625 20.988 43.1 10.82zM768.59 565.658c79.070-27.947 69.438-133.109-3.252-159.389v-6.27c0-16.568-13.432-30-30-30s-30 13.432-30 30v2.877c-13.82 2.426-26.449 7.598-42.404 18.033-13.863 9.070-17.752 27.662-8.682 41.527 9.070 13.867 27.662 17.752 41.527 8.682 14.625-9.564 19.363-10.311 39.355-10.174 19.299 0.129 26.992 15.279 28.492 24.209 1.348 8.016-0.166 18.678-15.035 23.932-24.908 8.807-50.449 18.91-68.543 33.102-41.203 32.316-28.766 106.127 25.291 125.768v4.346c0 16.566 13.432 30 30 30s30-13.434 30-30v-1.662c14.779-4.174 26.686-11.719 34.863-20.035 11.619-11.811 11.461-30.805-0.354-42.424-11.807-11.611-30.785-11.457-42.404 0.334-1.674 1.635-10.916 9.34-30.924 3.314-7.988-2.406-10.133-10.688-10.602-13.17-0.975-5.18 0.414-8.672 1.158-9.256 11.314-8.877 32.389-16.984 51.512-23.744z" />
<glyph unicode="&#xf119;" glyph-name="3770192" d="M482.58 234.14c-2.764 14.764 5.072 29.467 20.699 34.559 16.871 5.033 34.432-5.135 38.141-22.84 3.104-16.578-7.314-31.895-23.561-35.279-16.684-3.127-31.934 7.436-35.279 23.561zM160 46h704c16.568 0 30-13.432 30-30s-13.432-30-30-30h-704c-16.568 0-30 13.432-30 30s13.432 30 30 30zM994 798c16.561 0 30-13.439 30-30v-866c0-16.561-13.439-30-30-30h-964c-16.561 0-30 13.439-30 30v866c0 16.561 13.439 30 30 30h84v68c0 16.561 13.439 30 30 30h736c16.561 0 30-13.439 30-30v-68h84zM174 836v-454h56.42c-31.023 175.877 104.588 336 281.58 336 177.135 0 312.578-160.271 281.58-336h56.42v454h-676zM594 322h-164v-82c0-45.221 36.779-82 82-82s82 36.779 82 82v82zM545.24 460.32c35.199-12.439 56.359-43.041 55.359-78.32h131.801c32.061 141.58-75.945 276-220.4 276-144.586 0-252.432-134.551-220.4-276h248.96c0.68 7.68-1.781 16.961-15.32 21.76-24.92 8.801-50.461 18.9-68.541 33.1-41.209 32.311-28.77 106.121 25.281 125.76v4.342c0 16.578 13.439 30 30 30 16.58 0 30-13.422 30-30v-1.66c14.779-4.16 26.699-11.721 34.859-20.021 11.621-11.818 11.461-30.818-0.34-42.439-11.82-11.6-30.801-11.439-42.4 0.34-1.68 1.641-10.92 9.34-30.939 3.32-7.98-2.4-10.121-10.699-10.6-13.18-0.98-5.18 0.42-8.66 1.16-9.26 11.318-8.861 32.398-16.98 51.52-23.74zM60 738v-356h54v356h-54zM964-68v390h-310v-82c0-78.301-63.699-142-142-142s-142 63.699-142 142v82h-310v-390h904zM964 382v356h-54v-356h54z" />
<glyph unicode="&#xf11a;" glyph-name="3770193" d="M934 702c49.627 0 90-40.373 90-90v-456c0-49.627-40.373-90-90-90h-290.586l22-134h38.586c16.568 0 30-13.432 30-30s-13.432-30-30-30h-384c-16.568 0-30 13.432-30 30s13.432 30 30 30h38.586l22 134h-290.586c-49.627 0-90 40.373-90 90v456c0 49.627 40.373 90 90 90h72v104c0 49.627 40.373 90 90 90h520c49.627 0 90-40.373 90-90v-104h72zM222 706v-166c0-16.543 13.457-30 30-30h520c16.543 0 30 13.457 30 30v166h-580zM252 836c-16.543 0-30-13.457-30-30v-40h580v40c0 16.543-13.457 30-30 30h-520zM604.586-68l-22 134h-141.172l-22-134h185.172zM964 156v456c0 16.543-13.457 30-30 30h-72v-102c0-49.627-40.373-90-90-90h-520c-49.627 0-90 40.373-90 90v102h-72c-16.543 0-30-13.457-30-30v-456c0-16.543 13.457-30 30-30h844c16.543 0 30 13.457 30 30zM320 578c-16.568 0-30 13.432-30 30s13.432 30 30 30h128c16.568 0 30-13.432 30-30s-13.432-30-30-30h-128zM448 382c16.568 0 30-13.432 30-30s-13.432-30-30-30h-288c-16.568 0-30 13.432-30 30s13.432 30 30 30h288zM864 382c16.568 0 30-13.432 30-30s-13.432-30-30-30h-288c-16.568 0-30 13.432-30 30s13.432 30 30 30h288zM448 254c16.568 0 30-13.432 30-30s-13.432-30-30-30h-288c-16.568 0-30 13.432-30 30s13.432 30 30 30h288z" />
<glyph unicode="&#xf11b;" glyph-name="3770194" d="M231.992 130c-18.748 0-34-15.252-34-34s15.252-34 34-34h608c51.832 0 94-42.168 94-94s-42.168-96-94-96c-65.91 0-111.549 68.525-87.609 130h-304.782c23.918-61.418-21.625-130-87.609-130-65.91 0-111.549 68.525-87.609 130h-40.391c-51.832 0-94 42.168-94 94s42.168 94 94 94h22.902c-134.102 419.064-107.029 335.508-140.527 436h-42.375c-16.568 0-30 13.432-30 30s13.432 30 30 30h64c12.912 0 24.375-8.264 28.461-20.514l25.162-75.486h76.961c-10.371 165.963 122.008 306 285.416 306 163.1 0 295.806-139.723 285.418-306h114.584c20.334 0 34.754-19.826 28.572-39.143-137.629-430.086-128.049-400.574-129.301-403.298-3.309-7.287-9.201-12.531-15.789-15.271-8.469-3.527 26.826-2.287-603.484-2.287zM551.992 836c-124.619 0-226-103.383-226-228s101.381-226 226-226c124.617 0 226 101.383 226 226s-101.383 228-226 228zM209.090 530l108.801-340h484.204l108.801 340h-83.715c-34.035-119.912-144.518-208-275.188-208s-241.152 88.088-275.188 208h-67.715zM393.992-32c0 18.748-15.252 34-34 34s-34-15.252-34-34 15.252-36 34-36 34 17.252 34 36zM839.992-68c18.748 0 34 17.252 34 36s-15.252 34-34 34-34-15.252-34-34 15.252-36 34-36zM585.28 637.356c79.070-27.947 69.439-133.107-3.252-159.387v-6.271c0-16.566-13.432-30-30-30-16.566 0-30 13.434-30 30v2.879c-13.82 2.426-26.449 7.598-42.404 18.033-13.863 9.070-17.752 27.662-8.682 41.529 9.070 13.865 27.662 17.752 41.529 8.682 14.623-9.566 19.361-10.313 39.354-10.174 19.299 0.127 26.992 15.277 28.492 24.207 1.348 8.016-0.166 18.678-15.035 23.932-24.908 8.807-50.449 18.91-68.543 33.104-41.203 32.314-28.764 106.125 25.291 125.768v4.344c0 16.568 13.434 30 30 30 16.568 0 30-13.432 30-30v-1.664c14.781-4.174 26.688-11.719 34.865-20.033 11.617-11.813 11.459-30.807-0.355-42.424-11.807-11.613-30.785-11.459-42.402 0.334-1.674 1.633-10.916 9.34-30.924 3.313-7.988-2.406-10.135-10.688-10.604-13.17-0.973-5.18 0.414-8.672 1.158-9.256 11.314-8.875 32.389-16.984 51.512-23.744z" />
<glyph unicode="&#xf11c;" glyph-name="3770195" d="M934 606c49.627 0 90-40.373 90-90v-264c0-49.627-40.373-90-90-90h-264v-260c0-16.568-13.432-30-30-30h-610c-16.568 0-30 13.432-30 30v866c0 16.568 13.432 30 30 30h132v68c0 16.568 13.432 30 30 30h288c16.568 0 30-13.432 30-30v-68h130c16.568 0 30-13.432 30-30v-162h264zM934 546h-264v-68h294v38c0 16.543-13.457 30-30 30zM222 834v-164h228v164h-228zM610-68v806h-100v-68h2c16.568 0 30-13.432 30-30s-13.432-30-30-30h-352c-16.568 0-30 13.432-30 30s13.432 30 30 30h2v68h-102v-806h550zM934 222c16.543 0 30 13.457 30 30v166h-294v-196h264zM512 542c16.568 0 30-13.432 30-30v-144c0-16.568-13.432-30-30-30h-352c-16.568 0-30 13.432-30 30v144c0 16.568 13.432 30 30 30h352zM482 398v84h-292v-84h292zM192 270c16.568 0 30-13.432 30-30s-13.432-30-30-30h-32c-16.568 0-30 13.432-30 30s13.432 30 30 30h32zM352 270c16.568 0 30-13.432 30-30s-13.432-30-30-30h-32c-16.568 0-30 13.432-30 30s13.432 30 30 30h32zM512 270c16.568 0 30-13.432 30-30s-13.432-30-30-30h-32c-16.568 0-30 13.432-30 30s13.432 30 30 30h32zM192 158c16.568 0 30-13.432 30-30s-13.432-30-30-30h-32c-16.568 0-30 13.432-30 30s13.432 30 30 30h32zM352 158c16.568 0 30-13.432 30-30s-13.432-30-30-30h-32c-16.568 0-30 13.432-30 30s13.432 30 30 30h32zM512 158c16.568 0 30-13.432 30-30s-13.432-30-30-30h-32c-16.568 0-30 13.432-30 30s13.432 30 30 30h32zM192 46c16.568 0 30-13.432 30-30s-13.432-30-30-30h-32c-16.568 0-30 13.432-30 30s13.432 30 30 30h32zM352 46c16.568 0 30-13.432 30-30s-13.432-30-30-30h-32c-16.568 0-30 13.432-30 30s13.432 30 30 30h32zM512 46c16.568 0 30-13.432 30-30s-13.432-30-30-30h-32c-16.568 0-30 13.432-30 30s13.432 30 30 30h32z" />
<glyph unicode="&#xf11d;" glyph-name="3770196" d="M720.002 896c157.699 0 286-130.299 286-288 0-169.512-147.785-303.39-318.26-284.17-30.561-45.359-71.102-83.637-118.285-111.404-26.803-15.783-43.457-45.354-43.457-77.166v-103.26c0-16.568-13.432-30-30-30h-18v-34c0-51.832-42.168-96-94-96s-94 44.168-94 96v34h-18c-16.568 0-30 13.432-30 30v103.4c0 31.557-17.229 61.414-44.961 77.918-108.697 64.709-179.619 183.117-179.037 316.332 0.893 201.886 164.166 366.35 366 366.35 63.145 0 124.711-16.154 179.297-46.877 45.037 29.617 98.889 46.877 156.703 46.877zM466.002 130h-164v-68h164v68zM418.002-32v34h-68v-34c0-18.748 15.252-36 34-36s34 17.252 34 36zM539.020 264.13c32.764 19.283 61.699 44.625 85.215 74.381-110.742 39.473-190.232 145.365-190.232 269.488 0 76.473 30.17 148.027 79.232 199.396-40.252 18.771-84.25 28.604-129.232 28.604-167.984 0-305.256-138.648-306.002-306.614-0.473-107.896 56.9-209.25 149.727-264.51 29.363-17.473 51.58-44.137 63.762-74.877h62.51v129.945l-34.641 23.094c-13.785 9.191-17.512 27.816-8.32 41.604s27.816 17.512 41.604 8.32l31.359-20.906 31.359 20.906c13.787 9.189 32.412 5.465 41.604-8.32 9.191-13.787 5.467-32.412-8.32-41.604l-34.641-23.094v-129.945h62.322c11.975 30.719 33.82 57.127 62.695 74.131zM720.002 382c124.615 0 226 101.383 226 226s-101.383 228-226 228-226-103.383-226-228 101.383-226 226-226zM753.292 637.356c79.066-27.947 69.438-133.107-3.254-159.387v-6.271c0-16.566-13.432-30-30-30-16.566 0-30 13.434-30 30v2.879c-13.818 2.426-26.449 7.598-42.402 18.033-13.865 9.070-17.752 27.662-8.684 41.529 9.070 13.865 27.662 17.752 41.529 8.682 14.623-9.566 19.361-10.313 39.354-10.174 19.301 0.127 26.992 15.277 28.492 24.207 1.348 8.016-0.166 18.678-15.033 23.932-24.908 8.807-50.451 18.91-68.545 33.104-41.201 32.314-28.764 106.125 25.293 125.768v4.344c0 16.568 13.432 30 30 30 16.566 0 30-13.432 30-30v-1.664c14.779-4.174 26.686-11.719 34.863-20.033 11.617-11.813 11.459-30.807-0.354-42.424-11.809-11.613-30.787-11.459-42.404 0.334-1.674 1.633-10.916 9.34-30.924 3.313-7.988-2.406-10.135-10.688-10.604-13.17-0.973-5.18 0.414-8.672 1.158-9.256 11.314-8.875 32.389-16.984 51.514-23.744z" />
<glyph unicode="&#xf11e;" glyph-name="3770197" d="M923.826 43.131c7.881-19.701-6.662-41.139-27.852-41.139h-45.457l-55.705-113.41c-5.078-10.162-15.467-16.582-26.83-16.582h-511.964c-11.363 0-21.752 6.42-26.832 16.582l-55.705 113.41h-45.455c-21.215 0-35.721 21.463-27.852 41.139l63.996 159.988c4.555 11.391 15.584 18.857 27.852 18.857h209.792c-2.594 107.281-34.66 214.272-93.178 310.306-54.932 90.15-45.547 211.39 35.688 292.204 95.498 95.002 238.954 95.387 334.75 0.938 82.008-80.846 91.262-203.128 36.154-293.358-58.535-95.834-90.57-202.764-93.061-310.090h209.81c12.268 0 23.299-7.469 27.852-18.857zM359.874 563.5c64.256-105.459 99.381-223.244 101.977-341.526h100.289c2.492 118.346 37.592 236.092 101.889 341.362 16.984 27.807 25.959 59.828 25.959 92.609 0 98.99-80.74 181.355-180.582 179.971-94.869-1.346-173.537-81.605-175.361-176.451-0.65-33.979 8.281-67.164 25.83-95.965zM212.33 161.98l-39.998-99.992h679.334l-39.998 99.992h-599.338zM749.442-68.004l34 69.996h-542.88l33.998-69.996h474.882zM545.288 645.304c79.066-27.945 69.434-133.102-3.252-159.379v-6.27c0-16.568-13.43-29.998-29.998-29.998-16.566 0-29.998 13.43-29.998 29.998v2.877c-13.818 2.426-26.447 7.598-42.4 18.033-13.863 9.068-17.75 27.66-8.682 41.525 9.070 13.865 27.66 17.75 41.525 8.682 14.623-9.566 19.361-10.313 39.352-10.174 19.299 0.129 26.99 15.277 28.49 24.207 1.348 8.016-0.166 18.676-15.033 23.93-24.906 8.805-50.447 18.908-68.539 33.1-41.199 32.314-28.762 106.119 25.289 125.76v4.344c0 16.566 13.432 29.998 29.998 29.998 16.568 0 29.998-13.432 29.998-29.998v-1.662c14.779-4.174 26.686-11.717 34.863-20.033 11.617-11.811 11.459-30.803-0.355-42.42-11.807-11.611-30.783-11.457-42.4 0.334-1.674 1.633-10.916 9.34-30.922 3.313-7.988-2.404-10.133-10.686-10.602-13.168-0.975-5.18 0.414-8.672 1.158-9.256 11.313-8.875 32.387-16.982 51.508-23.742z" />
<glyph unicode="&#xf11f;" glyph-name="3770198" d="M766 444.43c143.654-15.043 258-136.859 258-284.43 0-157.701-130.299-288-288-288-153.008 0-278.328 122.777-285.654 274h-420.346c-16.568 0-30 13.432-30 30v528c0 16.568 13.432 30 30 30h134.367c14.43 90.561 93.072 162 187.633 162h64c94.559 0 173.195-71.439 187.623-162h132.377c16.568 0 30-13.432 30-30v-259.57zM509.186 334c46.584 60.582 116.84 102.055 196.814 110.43v97.002c-73.707-37.119-151.354-61.043-231.67-71.375-11.291-39.25-47.498-68.057-90.33-68.057-42.861 0-79.088 28.846-90.352 68.137-80.463 10.395-160.1 34.293-233.648 71.305v-207.442h449.186zM418 497.532v32.469h-68v-32.422c0-22.074 16.482-35.578 34-35.578 17.641 0 34 13.65 34 35.531zM225.514 734.082c90.074-0.061 220.822-0.078 316.992-0.082-13.576 57.27-65.145 102-126.506 102h-64c-61.33 0-112.879-44.693-126.486-101.918zM706 674h-646v-64.637c71.984-40.252 150.477-66.459 230-78.156v28.793c0 16.568 13.432 30 30 30h128c16.568 0 30-13.432 30-30v-28.873c79.342 11.635 155.832 37.871 228 78.236v64.637zM60 274v-68h393.718c3.859 23.77 10.658 46.562 20.012 68h-413.73zM736-68c124.617 0 228 103.383 228 228s-103.383 226-228 226-226-101.383-226-226 101.383-228 226-228zM769.29 189.355c79.070-27.947 69.439-133.107-3.252-159.387v-6.271c0-16.566-13.432-30-30-30-16.566 0-30 13.434-30 30v2.879c-13.818 2.426-26.449 7.598-42.402 18.033-13.865 9.070-17.752 27.662-8.684 41.529 9.070 13.865 27.662 17.752 41.529 8.682 14.623-9.566 19.361-10.313 39.354-10.174 19.301 0.127 26.992 15.277 28.492 24.207 1.348 8.016-0.166 18.678-15.033 23.932-24.908 8.807-50.451 18.91-68.545 33.104-41.201 32.314-28.764 106.125 25.291 125.768v4.344c0 16.568 13.434 30 30 30 16.568 0 30-13.432 30-30v-1.664c14.781-4.174 26.688-11.719 34.865-20.033 11.617-11.813 11.459-30.807-0.354-42.424-11.809-11.613-30.787-11.459-42.404 0.334-1.674 1.633-10.916 9.34-30.924 3.313-7.988-2.406-10.135-10.688-10.604-13.17-0.973-5.18 0.414-8.672 1.158-9.256 11.314-8.875 32.389-16.984 51.512-23.744z" />
<glyph unicode="&#xf120;" glyph-name="3770199" d="M934 862c49.627 0 90-40.373 90-90v-584c0-49.627-40.373-90-90-90h-290.586l22-132h38.586c16.568 0 30-13.432 30-30s-13.432-30-30-30h-384c-16.568 0-30 13.432-30 30s13.432 30 30 30h38.586l22 132h-290.586c-49.627 0-90 40.373-90 90v584c0 49.627 40.373 90 90 90h844zM604.586-34l-22 132h-141.172l-22-132h185.172zM964 188v584c0 16.543-13.457 30-30 30h-844c-16.543 0-30-13.457-30-30v-584c0-16.543 13.457-30 30-30h844c16.543 0 30 13.457 30 30zM864 542c16.568 0 30-13.432 30-30v-256c0-16.568-13.432-30-30-30h-704c-16.568 0-30 13.432-30 30v320c0 16.568 13.432 30 30 30s30-13.432 30-30v-290h80v226c0 16.568 13.432 30 30 30s30-13.432 30-30v-226h82v162c0 16.568 13.432 30 30 30s30-13.432 30-30v-162h80v98c0 16.568 13.432 30 30 30s30-13.432 30-30v-98h82v226c0 16.568 13.432 30 30 30s30-13.432 30-30v-226h80v226c0 16.568 13.432 30 30 30zM864 686c16.568 0 30-13.432 30-30s-13.432-30-30-30h-132.729l-119.518-104.576c-5.559-4.863-12.604-7.424-19.758-7.424-8.082 0 18.26-8.754-442.416 161.869-15.535 5.754-23.467 23.016-17.713 38.553 5.754 15.533 23.012 23.467 38.553 17.713l415.26-153.801 114.566 100.244c5.469 4.783 12.488 7.422 19.754 7.422h144z" />
<glyph unicode="&#xf121;" glyph-name="3770200" d="M993.994 509.994c16.568 0 30-13.43 30-30v-447.996c0-16.568-13.432-30-30-30h-115.998v-69.998c0-33.084-26.916-60-60-60h-611.994c-33.084 0-60 26.916-60 60v69.998h-115.998c-16.568 0-30 13.432-30 30v447.996c0 16.568 13.432 30 30 30h115.998v325.996c0 33.084 26.916 60 60 60 475.586 0 450.906 0.074 453.364-0.201 5.854-0.66 11.439-3.070 15.906-6.822 1.154-0.971 193.938-195.562 193.938-195.764 5.48-5.477 8.787-13.188 8.787-21.211v-161.998h115.998zM685.998 791.564v-89.572h89.572zM206.002 835.99v-325.996h611.994v131.998h-161.998c-16.568 0-30 13.432-30 30v163.998h-419.996zM817.996-68v69.998h-611.994v-69.998h611.994zM963.994 61.998v387.996h-903.99v-387.996h903.99zM336 397.994c16.568 0 30-13.432 30-29.998 0-16.568-13.432-30-30-30h-49.998v-193.998c0-16.568-13.432-30-30-30s-30 13.432-30 30v193.998h-50c-16.568 0-30 13.432-30 30 0 16.566 13.432 29.998 30 29.998h159.998zM545.158 375.344l82.924-220.798c5.826-15.51-2.025-32.805-17.537-38.631-15.502-5.824-32.807 2.025-38.631 17.537l-10.721 28.549h-98.312l-10.824-28.615c-4.539-12.002-15.949-19.393-28.062-19.393-20.816 0-35.518 20.891-28.055 40.621 87.371 230.986 83.57 220.948 83.811 221.536 5.434 13.283 18.221 21.848 32.547 21.848 15.189 0 28.035-9.602 32.861-22.652zM485.578 221.996h53.080l-26.445 70.416zM823.584 385.434c9.633 13.48 28.371 16.604 41.85 6.975 13.482-9.631 16.604-28.367 6.975-41.85l-67.545-94.561 67.545-94.561c14.252-19.951-0.26-47.439-24.387-47.439-9.361 0-18.582 4.367-24.438 12.566l-55.588 77.82-55.588-77.82c-5.855-8.199-15.076-12.566-24.438-12.566-24.127 0-38.635 27.492-24.385 47.439l67.543 94.561-67.543 94.561c-9.633 13.484-6.508 32.221 6.973 41.85s32.221 6.508 41.85-6.975l55.588-77.822zM448 765.992c16.568 0 30-13.434 30-30 0-16.568-13.432-30-30-30h-143.998c-16.568 0-30 13.432-30 30 0 16.566 13.432 30 30 30h143.998zM448 637.992c16.568 0 30-13.432 30-30 0-16.566-13.432-30-30-30h-143.998c-16.568 0-30 13.434-30 30 0 16.568 13.432 30 30 30h143.998z" />
<glyph unicode="&#xf122;" glyph-name="3770201" d="M847.864 613.44c71.223-81.285 110.137-184.365 110.137-293.44 0-246.524-199.512-448-446-448-246.524 0-446 201.512-446 448 0 109.074 38.914 212.154 110.137 293.438l-37.35 37.348c-11.715 11.717-11.715 30.713 0 42.428 11.717 11.713 30.713 11.713 42.428 0l37.348-37.35c73.787 64.656 165.543 102.662 263.438 109.121v71.016h-66c-16.568 0-30 13.432-30 30s13.432 30 30 30h192c16.568 0 30-13.432 30-30s-13.432-30-30-30h-66v-71.016c97.895-6.459 189.65-44.465 263.438-109.119l37.348 37.35c11.717 11.713 30.713 11.713 42.428 0 11.715-11.717 11.715-30.713 0-42.428zM512-68c212.842 0 386 175.158 386 388s-173.158 386-386 386-386-173.158-386-386 173.158-388 386-388zM512 606c157.701 0 286-128.299 286-286s-128.299-286-286-286-286 128.299-286 286 128.299 286 286 286zM512 94c124.617 0 226 101.383 226 226s-101.383 226-226 226-226-101.383-226-226 101.383-226 226-226zM545.29 349.508c79.070-27.947 69.439-133.109-3.252-159.391v-6.27c0-16.568-13.432-30-30-30-16.566 0-30 13.432-30 30v2.879c-13.818 2.426-26.449 7.598-42.402 18.033-13.865 9.070-17.752 27.662-8.684 41.527 9.070 13.867 27.662 17.752 41.529 8.684 14.623-9.566 19.361-10.313 39.354-10.174 19.301 0.127 26.992 15.277 28.492 24.207 1.348 8.016-0.166 18.678-15.033 23.932-24.908 8.807-50.451 18.91-68.545 33.102-41.201 32.316-28.764 106.127 25.291 125.77v4.344c0 16.568 13.434 30 30 30 16.568 0 30-13.432 30-30v-1.662c14.781-4.174 26.688-11.719 34.865-20.035 11.617-11.811 11.459-30.805-0.354-42.424-11.809-11.611-30.787-11.457-42.404 0.334-1.674 1.635-10.916 9.34-30.924 3.314-7.988-2.406-10.135-10.688-10.604-13.17-0.973-5.18 0.414-8.672 1.158-9.256 11.314-8.875 32.389-16.984 51.512-23.744z" />
<glyph unicode="&#xf123;" glyph-name="3770202" d="M993.018 542c16.568 0 30-13.432 30-30v-610c0-16.568-13.432-30-30-30h-898c-51.832 0-94 44.168-94 96v512c0 7.537-3.641-4.73 64 181.283v204.716c0 16.568 13.432 30 30 30h672c16.568 0 30-13.432 30-30v-324h196zM737.018 836h-612v-174.717l62.195-171.031c2.789-7.67 1.805 23.643 1.805-522.252 0-11.988-2.279-25.447-6.389-36h330.388v580c0 16.568 13.432 30 30 30h194v294zM61.018 386v-324h68v324h-68zM95.018 568.214l-34-93.5v-28.715h68v28.715zM61.018 2v-34c0-18.748 15.252-36 34-36s34 17.252 34 36v34h-68zM963.018-68v550h-390v-550h390zM641.018 384c0 16.568 13.43 30 30 30h192c16.568 0 30-13.432 30-30s-13.432-30-30-30h-192c-16.568 0-30 13.432-30 30zM700.438 261.862c2.758-14.752-5.039-29.473-20.699-34.559-14.926-4.469-31.822 2.855-37.42 19.979-4.418 14.857 2.746 31.787 19.98 37.42 16.834 5.004 34.414-5.080 38.139-22.84zM796.418 261.862c3.895-18.781-10.883-35.861-29.402-35.859-26.359 0-40.111 31.73-21.219 51.221 17.156 17.156 46.266 7.635 50.621-15.361zM892.438 261.862c2.758-14.752-5.039-29.473-20.699-34.559-14.881-4.457-31.795 2.771-37.42 19.979-4.418 14.857 2.746 31.787 19.98 37.42 16.941 5.037 34.438-5.188 38.139-22.84zM687.678 168.941c21.998-14.898 15.563-48.842-10.799-54.359-16.686-3.127-31.939 7.438-35.281 23.561-4.934 26.332 23.703 45.506 46.080 30.799zM796.438 149.861c2.758-14.754-5.078-29.484-20.699-34.559-14.879-4.455-31.795 2.771-37.42 19.979-4.418 14.857 2.752 31.787 19.98 37.42 16.836 5.006 34.414-5.082 38.139-22.84zM863.018 174c16.568 0 30-13.432 30-30v-112c0-16.568-13.432-30-30-30s-30 13.432-30 30v112c0 16.568 13.432 30 30 30zM687.678 56.941c21.979-14.885 15.582-48.838-10.801-54.361-24.674-4.623-44.076 20.5-32.32 43.541 8.271 15.424 27.967 20.779 43.121 10.82zM796.438 37.861c3.395-18.158-9.387-33.951-26.461-35.721-24.748-2.52-42.051 25.061-27.898 46.52 14.84 22.045 48.838 15.521 54.359-10.799zM223.018 706c-16.57 0-30 13.432-30 30s13.432 30 30 30h416c16.568 0 30-13.432 30-30s-13.432-30-30-30h-416zM223.018 578c-16.57 0-30 13.432-30 30s13.432 30 30 30h112c16.568 0 30-13.432 30-30s-13.432-30-30-30h-112z" />
<glyph unicode="&#xf124;" glyph-name="3770203" d="M873.772 745.314c200.504-200.746 200.146-522.492-0.225-722.862-203.876-203.876-529.126-197.377-723.318 0.232-200.506 200.746-200.146 522.492 0.225 722.862 203.876 203.878 529.126 197.377 723.318-0.232zM512 835.902c-249.18 0-451.902-202.722-451.902-451.902 0-113.82 42.314-217.93 112.016-297.47l75.627 75.629c-47.619 2.26-85.666 41.703-85.666 89.871v263.942c0 49.617 40.367 89.982 89.982 89.982h439.478l117.936 117.934c-79.539 69.701-183.65 112.016-297.47 112.016zM771.944 545.964h-55.561l-67.986-67.984h153.541v37.99c0 16.539-13.455 29.994-29.994 29.994zM252.056 222.036h55.561l67.986 67.984h-55.562c-16.564 0-29.994 13.43-29.994 29.994s13.43 29.994 29.994 29.994h115.549l67.986 67.984h-281.514v-165.963c0-16.539 13.455-29.994 29.994-29.994zM222.062 477.98h341.5l67.986 67.984h-379.492c-16.539 0-29.994-13.455-29.994-29.994v-37.99zM588.41 417.992c-303.426-303.424-80.756-80.752-195.959-195.957h379.492c16.539 0 29.994 13.455 29.994 29.994v165.963h-213.528zM512-67.902c249.178 0 451.902 202.724 451.902 451.902 0 113.82-42.314 217.93-112.016 297.47l-75.627-75.629c47.619-2.26 85.666-41.703 85.666-89.871v-263.942c0-49.617-40.367-89.982-89.982-89.982h-439.478l-117.936-117.934c79.539-69.701 183.65-112.016 297.47-112.016z" />
<glyph unicode="&#xf125;" glyph-name="3770204" d="M872.542 744.544c201.956-201.956 201.926-519.164 0-721.090-201.956-201.954-519.16-201.926-721.088 0-201.956 201.956-201.926 519.164 0 721.090 201.956 201.954 519.16 201.926 721.088 0zM962.874 413.994c-11.697 176.828-127.988 326.062-285.772 388.528 81.385-101.842 116.125-255.678 120.34-388.528h165.432zM511.998 158.051c124.592 0 225.952 101.359 225.952 225.952 0 124.59-101.359 225.95-225.952 225.95-124.59 0-225.95-101.359-225.95-225.95s101.359-225.952 225.95-225.952zM541.992 668.366c66.148-6.926 125.65-36.504 170.602-80.811-33.543 127.748-97.090 223.754-170.602 244.17v-163.359zM482.006 831.724c-73.512-20.416-137.057-116.422-170.602-244.172 44.951 44.309 104.453 73.887 170.602 80.812v163.359zM482.006 99.635c-66.148 6.928-125.65 36.506-170.602 80.811 33.543-127.748 97.090-223.754 170.602-244.17v163.359zM541.992-63.723c73.512 20.416 137.059 116.42 170.602 244.172-44.951-44.309-104.453-73.887-170.602-80.812v-163.359zM346.898 802.522c-157.783-62.465-274.074-211.7-285.774-388.528h165.434c4.219 132.99 38.904 286.622 120.34 388.528zM61.125 354.008c11.699-176.828 127.99-326.064 285.772-388.528-81.385 101.842-116.125 255.678-120.34 388.528h-165.432zM677.102-34.52c157.783 62.463 274.074 211.7 285.772 388.528h-165.432c-4.219-132.99-38.904-286.622-120.34-388.528zM545.282 413.35c79.053-27.941 69.422-133.080-3.252-159.354v-6.268c0-16.564-13.428-29.994-29.992-29.994s-29.994 13.43-29.994 29.994v2.877c-13.816 2.426-26.443 7.596-42.395 18.029-13.859 9.068-17.748 27.656-8.68 41.52 9.068 13.861 27.656 17.748 41.52 8.68 14.621-9.564 19.357-10.311 39.346-10.172 19.295 0.127 26.984 15.273 28.484 24.203 1.348 8.014-0.166 18.674-15.031 23.926-24.902 8.805-50.438 18.906-68.527 33.094-41.193 32.311-28.758 106.104 25.285 125.74v4.344c0 16.564 13.43 29.992 29.994 29.992s29.994-13.428 29.994-29.992v-1.662c14.775-4.174 26.68-11.715 34.855-20.029 11.615-11.809 11.457-30.799-0.354-42.414-11.807-11.609-30.779-11.455-42.395 0.334-1.674 1.633-10.914 9.338-30.918 3.313-7.986-2.404-10.131-10.686-10.6-13.166-0.973-5.18 0.414-8.67 1.158-9.254 11.311-8.875 32.381-16.98 51.5-23.74z" />
<glyph unicode="&#xf126;" glyph-name="3770205" d="M1015.158 389.224c18.996-18.992 5.287-51.33-21.256-51.33-6.547 0-15.088 2.148-20.51 6.396-18.674-222.676-197.322-405.256-427.14-422.084-16.617-1.219-30.975 11.283-32.184 27.791-1.213 16.563 11.229 30.973 27.789 32.184 199.566 14.613 352.338 172.092 371.078 361.192-11.73-8.25-28.029-7.16-38.518 3.328-11.744 11.742-11.744 30.781 0 42.521 49.902 49.902 48.602 48.729 50.662 50.371 9.336 7.424 21.715 8.313 31.551 3.633 6.428-3.033 7.742-3.217 58.527-54.002zM482.102 785.818c-199.562-14.617-352.332-172.1-371.070-361.194 11.732 8.25 28.031 7.16 38.52-3.328 11.742-11.742 11.742-30.781 0-42.521l-48.107-48.109c-11.086-11.086-29.58-12.143-41.875-0.584-1.682 1.594 5.467-7.533-50.76 48.693-11.744 11.742-11.744 30.781 0 42.521 10.863 10.867 29.973 11.654 41.77 2.412 18.658 222.498 197.152 405.24 427.128 422.084 16.572 1.223 30.973-11.229 32.186-27.791s-11.23-30.971-27.791-32.184zM798.628 383.998c0-158.055-128.588-286.644-286.646-286.644-158.057 0-286.644 128.588-286.644 286.644 0 158.059 128.588 286.646 286.644 286.646 158.059 0 286.646-128.588 286.646-286.646zM511.982 157.488c124.9 0 226.51 101.611 226.51 226.51s-101.609 226.512-226.51 226.512c-124.898 0-226.51-101.611-226.51-226.512 0-124.898 101.611-226.51 226.51-226.51zM545.96 413.574c79.248-28.012 69.596-133.41-3.26-159.75v-6.285c0-16.605-13.461-30.066-30.066-30.066s-30.068 13.461-30.068 30.066v2.885c-13.852 2.432-26.51 7.615-42.5 18.074-13.895 9.092-17.791 27.725-8.701 41.623 9.090 13.896 27.725 17.791 41.621 8.701 14.658-9.588 19.406-10.336 39.443-10.197 19.344 0.129 27.053 15.313 28.557 24.264 1.352 8.033-0.166 18.719-15.068 23.984-24.963 8.826-50.564 18.953-68.699 33.178-41.295 32.389-28.828 106.365 25.35 126.051v4.355c0 16.605 13.463 30.066 30.068 30.066s30.068-13.461 30.068-30.066v-1.666c14.813-4.184 26.746-11.744 34.941-20.080 11.645-11.838 11.486-30.875-0.354-42.52-11.836-11.639-30.855-11.484-42.5 0.334-1.678 1.639-10.941 9.361-30.994 3.322-8.006-2.412-10.156-10.713-10.627-13.199-0.975-5.191 0.416-8.691 1.162-9.277 11.338-8.896 32.461-17.021 51.627-23.797z" />
<glyph unicode="&#xf127;" glyph-name="3770206" d="M934 686.004c49.627 0 90-40.373 89.998-90v-424c0-49.625-40.375-90-90-90-414.672 0-392.254-0.744-399.034 1.398-14.576 4.621-23.398 19.465-20.359 34.535 0.967 4.748-3.264-5.543 60.564 138.066-63.973 143.938-59.568 133.293-60.521 137.865-0.908 4.338-0.861 8.686 0.172 13.045 1.17 4.934-2.814-3.814 59.637 121.090-62.514 125.029-58.387 116.092-59.553 120.748-3.684 14.795 4.311 30.146 18.877 35.443 7.193 2.607-19.76 1.809 400.218 1.809zM934 626.004h-341.458l34-68h337.458v38c0 16.543-13.457 30-30 30zM964 430.004v68h-337.458l-34-68h371.458zM934 142.004c16.543 0 30 13.459 30 30.002v198h-373.838l45.252-101.816c3.447-7.758 3.447-16.611 0-24.369l-45.25-101.816h343.836zM320 286.004c16.568 0 30-13.432 30-30s-13.432-30-30-30h-160c-16.568 0-30 13.432-30 30s13.432 30 30 30h160zM449.164 399.252l58.25-131.059c3.447-7.758 3.447-16.611 0-24.369-69.031-155.324-64.402-145.744-67.305-149.67-4.422-5.982-10.836-9.947-17.656-11.441-4.863-1.076 13.51-0.705-332.454-0.705-49.627 0-90 40.375-90 90v424c0 49.627 40.373 90 90 90 5.457 0 324.722 0.008 326.488-0.018 10.219-0.18 19.252-5.408 24.582-13.537 1.641-2.508 65.768-131.072 65.871-131.287 3.133-6.414 3.83-13.508 2.188-20.275-1.16-4.756 2.014 2.314-59.965-121.639zM60 430.004h337.458l34 68h-371.458v-68zM90 626.004c-16.543 0-30-13.457-30-30v-38h371.458l-34 68h-307.458zM396.504 142.004l50.666 114-50.666 114h-336.504v-198c0-16.541 13.457-30 30-30h306.504z" />
<glyph unicode="&#xf128;" glyph-name="3770207" d="M797.832 594.944c1.475-14.506-8.016-29.049-23.996-32.379-16.453-3.082-31.885 7.207-35.277 23.559-3.096 16.541 7.227 31.867 23.555 35.277 18.041 3.393 33.93-9.232 35.719-26.457zM285.43 597.844c2.713-14.486-4.803-29.361-20.699-34.557-14.803-4.402-31.768 2.701-37.418 19.979-4.576 15.393 3.41 32.123 19.998 37.418 16.416 5.002 34.346-4.828 38.119-22.84zM511.992 382c16.57 0 29.998-13.43 29.998-29.998v-207.984c0-16.566-13.43-29.998-29.998-29.998-16.566 0-29.996 13.432-29.996 29.998v207.984c0 16.566 13.43 29.998 29.996 29.998zM541.41 37.887c2.695-14.389-4.713-29.332-20.699-34.557-15.238-4.529-32.043 3.209-37.418 19.998-4.584 15.098 3.203 32.037 19.998 37.398 16.381 4.988 34.338-4.791 38.119-22.84zM993.958 895.96c16.568 0 29.996-13.43 29.996-29.998v-545.958c0-16.566-13.43-29.998-29.996-29.998h-234.706l259.308-370.804c13.896-19.92-0.459-47.164-24.602-47.164h-963.928c-24.281 0-38.418 27.361-24.602 47.164l259.304 370.804h-234.706c-16.566 0-29.998 13.432-29.998 29.998v545.958c0 16.566 13.432 29.998 29.998 29.998h963.928zM963.958 835.964h-81.988c10.59-38.789 43.199-71.4 81.988-81.99v81.99zM60.027 835.964v-81.99c38.787 10.592 71.398 43.201 81.988 81.99h-81.988zM60.027 350.002h81.988c-10.59 38.789-43.199 69.4-81.988 79.99v-79.99zM87.535-67.967h848.918l-424.46 607.524zM414 591.982c0-21.68 7.221-42.453 20.035-59.312l53.355 76.477c11.936 17.105 37.283 17.086 49.205 0l53.355-76.477c12.814 16.859 20.035 37.633 20.035 59.312 0 54.035-43.959 97.994-97.994 97.994-54.033 0-97.992-43.959-97.992-97.994zM625.334 481.954l92.059-131.951h103.174c12.555 71.941 71.449 128.838 143.393 141.393v201.178c-71.943 12.555-130.838 71.449-143.393 143.393h-617.146c-12.555-71.943-71.449-130.838-143.393-143.393v-201.178c71.943-12.555 130.838-69.451 143.393-141.393h103.172l92.061 131.951c-28.34 29.219-44.646 68.607-44.646 110.029 0 87.115 70.871 157.988 157.986 157.988s157.988-70.873 157.988-157.988c0-41.422-16.307-80.811-44.646-110.029zM963.958 350.002v79.99c-38.787-10.592-71.398-41.201-81.988-79.99h81.988z" />
<glyph unicode="&#xf129;" glyph-name="3770208" d="M934 765.998c49.627 0 90-40.375 90-90v-424c0-49.627-40.373-90-90-90h-328v-86h34c25.848 0 39.58-30.633 22.422-49.932l-128-144c-11.93-13.422-32.922-13.414-44.844 0l-128 144c-17.172 19.318-3.404 49.932 22.422 49.932h34v86h-328c-49.627 0-90 40.373-90 90v424c0 49.625 40.373 90 90 90h328v100c0 16.568 13.432 30 30 30h128c16.568 0 30-13.432 30-30v-100h328zM934 705.998h-328v-68h358v38c0 16.541-13.457 30-30 30zM964 509.998v68h-358v-68h358zM60 577.998v-68h358v68h-358zM90 705.998c-16.543 0-30-13.459-30-30v-38h358v68h-328zM90 221.998h328v228h-358v-198c0-16.543 13.457-30 30-30zM512-52.846l61.301 68.963c-15.303 1.365-27.301 14.223-27.301 29.881v790h-68v-790c0-15.658-11.998-28.514-27.301-29.881zM934 221.998c16.543 0 30 13.457 30 30v198h-358v-228h328zM320 365.998c16.568 0 30-13.432 30-30s-13.432-30-30-30h-160c-16.568 0-30 13.432-30 30s13.432 30 30 30h160z" />
<glyph unicode="&#xf12a;" glyph-name="3770209" d="M960 514v-260h34c16.568 0 30-13.432 30-30v-128c0-16.568-13.432-30-30-30h-130c-12.533 0-23.262 7.693-27.748 18.611l-230.252-106.268v-76.344c0-16.568-13.432-30-30-30h-128c-16.568 0-30 13.432-30 30v76.344l-230.252 106.268c-4.486-10.918-15.215-18.611-27.748-18.611h-130c-16.568 0-30 13.432-30 30v128c0 16.568 13.432 30 30 30h34v260h-34c-16.568 0-30 13.432-30 30v128c0 16.568 13.432 30 30 30h130c12.533 0 23.262-7.693 27.748-18.611l230.252 106.268v76.344c0 16.568 13.432 30 30 30h128c16.568 0 30-13.432 30-30v-76.344l230.252-106.268c4.486 10.918 15.215 18.611 27.748 18.611h130c16.568 0 30-13.432 30-30v-128c0-16.568-13.432-30-30-30h-34zM898 414v100h-34c-16.568 0-30 13.432-30 30v74.344l-230.252 106.268c-4.486-10.918-15.215-18.611-27.748-18.611h-34v-100h130c16.568 0 30-13.432 30-30v-162h196zM382 222h260v68h-260v-68zM642 546h-260v-196h260v196zM894 642v-68h70v68h-70zM478 836v-70h68v70h-68zM60 642v-68h70v68h-70zM160 514h-34v-100h196v162c0 16.568 13.432 30 30 30h130v100h-34c-12.533 0-23.262 7.693-27.748 18.611l-230.252-106.268v-74.344c0-16.568-13.432-30-30-30zM126 354v-100h34c16.568 0 30-13.432 30-30v-74.344l230.252-106.268c4.486 10.918 15.215 18.611 27.748 18.611h34v100h-130c-16.568 0-30 13.432-30 30v162h-196zM130 126v68h-70v-68h70zM546-68v70h-68v-70h68zM964 126v68h-70v-68h70zM864 254h34v100h-196v-162c0-16.568-13.432-30-30-30h-130v-100h34c12.533 0 23.262-7.693 27.748-18.611l230.252 106.268v74.344c0 16.568 13.432 30 30 30zM480 418c-16.568 0-30 13.432-30 30s13.432 30 30 30h64c16.568 0 30-13.432 30-30s-13.432-30-30-30h-64z" />
<glyph unicode="&#xf12b;" glyph-name="3770210" d="M512 670c157.699 0 286-128.299 286-286s-128.299-286-286-286-286 128.299-286 286 128.299 286 286 286zM512 158c124.615 0 226 101.383 226 226s-101.383 226-226 226-226-101.383-226-226 101.383-226 226-226zM896 750c16.568 0 30-13.43 30-30v-276.262c0-210.51-113.979-405.394-297.452-508.6l-101.842-59.287c-9.15-5.148-20.297-5.127-29.414 0l-101.84 59.287c-183.475 103.203-297.454 298.086-297.454 508.598v276.264c0 16.568 13.432 30 30 30 2.252 0.004 229.55 3.979 362.786 137.213 11.717 11.713 30.713 11.713 42.428 0 133.668-133.666 360.512-137.213 362.788-137.213zM866 443.738v247.602c-123.531 8.949-259.138 51.812-354 133.746-94.908-81.975-230.524-124.801-354-133.746v-247.602c0-188.867 102.258-363.712 266.87-456.306l87.131-51.012 87.133 51.014c164.609 92.594 266.868 267.438 266.868 456.304zM545.288 413.358c79.070-27.947 69.439-133.109-3.252-159.389v-6.271c0-16.566-13.432-30-30-30-16.566 0-30 13.434-30 30v2.879c-13.818 2.426-26.449 7.598-42.402 18.033-13.865 9.070-17.752 27.662-8.684 41.529 9.070 13.865 27.662 17.752 41.529 8.682 14.623-9.566 19.361-10.313 39.354-10.174 19.301 0.127 26.992 15.277 28.492 24.207 1.348 8.016-0.166 18.678-15.035 23.932-24.906 8.807-50.449 18.91-68.543 33.104-41.201 32.314-28.764 106.125 25.291 125.768v4.344c0 16.568 13.434 30 30 30 16.568 0 30-13.432 30-30v-1.662c14.781-4.174 26.688-11.719 34.865-20.033 11.617-11.813 11.459-30.807-0.354-42.424-11.809-11.613-30.787-11.459-42.404 0.334-1.674 1.633-10.916 9.34-30.924 3.313-7.988-2.406-10.135-10.688-10.604-13.17-0.973-5.18 0.414-8.672 1.158-9.256 11.314-8.875 32.389-16.984 51.512-23.744z" />
<glyph unicode="&#xf12c;" glyph-name="3770211" d="M293.18 517.222l351.992-351.986c15.764-15.764 9.389-42.633-11.727-49.674l-233.278-77.76-61.775-63.775 50.785-50.787c11.717-11.715 11.717-30.709 0-42.424-11.715-11.719-30.711-11.717-42.424 0l-50.787 50.785-11.021-11.021c-64.82-64.822-171.697-64.723-236.418 0-64.631 64.631-64.631 171.791 0 236.42l117.223 115.223 77.758 233.276c7.049 21.148 33.93 27.467 49.672 11.725zM242.522-36.994l99.018 101.018-149.568 149.568-101.020-99.020c-41.236-41.236-41.236-110.332 0-151.568-0.199 0 29.342-30.926 76.705-30.977 28.596 0 55.035 11.148 74.865 30.979zM392.066 98.348l176.355 58.785-283.344 283.344-58.787-176.354zM735.956 896c157.697 0 287.99-130.295 287.99-287.992s-130.293-285.99-287.99-285.99-285.992 128.293-285.992 285.99 128.295 287.992 285.992 287.992zM735.956 382.016c124.613 0 227.992 101.379 227.992 225.992 0 124.615-103.379 227.994-227.992 227.994-124.615 0-225.994-103.379-225.994-227.994 0-124.613 101.379-225.992 225.994-225.992zM769.244 637.366c79.066-27.947 69.436-133.105-3.252-159.385v-6.27c0-16.568-13.432-30-30-30-16.566 0-29.998 13.432-29.998 30v2.877c-13.82 2.426-26.449 7.598-42.404 18.033-13.863 9.070-17.75 27.662-8.682 41.527 9.070 13.865 27.662 17.752 41.527 8.682 14.623-9.566 19.361-10.311 39.354-10.174 19.299 0.129 26.99 15.277 28.49 24.207 1.348 8.016-0.166 18.678-15.033 23.932-24.908 8.807-50.449 18.91-68.543 33.102-41.199 32.314-28.762 106.123 25.293 125.764v4.344c0 16.568 13.432 30 29.998 30 16.568 0 30-13.432 30-30v-1.662c14.779-4.174 26.686-11.717 34.863-20.033 11.617-11.811 11.459-30.805-0.355-42.422-11.807-11.611-30.785-11.459-42.402 0.334-1.674 1.633-10.916 9.34-30.924 3.314-7.986-2.406-10.133-10.689-10.602-13.17-0.973-5.18 0.414-8.672 1.158-9.256 11.314-8.877 32.387-16.984 51.512-23.744z" />
<glyph unicode="&#xf12d;" glyph-name="3770212" d="M354.002 557.998c0 92.766 73.758 159.998 158 159.998 84.109 0 157.998-67.119 157.998-159.998h34c16.568 0 30-13.432 30-30v-319.998c0-122.412-99.588-221.998-221.998-221.998-122.412 0-222 99.586-222 221.998v319.998c0 16.568 13.432 30 30 30h34zM674 208v289.998h-323.998v-289.998c0-89.326 72.674-161.998 162-161.998 89.324 0 161.998 72.672 161.998 161.998zM610 557.998c0 58.85-46.061 100-97.998 100-52.078 0-98-41.285-98-100h195.998zM1010.638 568.958c13.787-9.189 17.512-27.814 8.322-41.604-9.203-13.807-27.838-17.496-41.604-8.318l-67.359 43.572v-660.606c0-16.568-13.432-30-30-30h-735.994c-16.568 0-30 13.432-30 30v660.608l-67.359-43.572c-13.783-9.195-32.41-5.471-41.604 8.318-9.191 13.787-5.467 32.412 8.32 41.602l481.998 322c10.078 6.717 23.203 6.717 33.281 0l209.36-141.574v82.611c0 16.568 13.432 30 30 30s30-13.432 30-30v-122.611zM849.998-67.998v670.608l-337.996 227.334-337.998-227.334v-670.608h675.994zM545.29 301.358c79.068-27.947 69.438-133.109-3.252-159.389v-6.27c0-16.568-13.432-30-30-30s-30 13.432-30 30v2.877c-13.82 2.426-26.449 7.598-42.404 18.033-13.863 9.070-17.752 27.662-8.682 41.529 9.070 13.865 27.662 17.752 41.527 8.682 14.625-9.566 19.363-10.313 39.354-10.174 19.301 0.127 26.992 15.277 28.492 24.207 1.348 8.016-0.166 18.678-15.033 23.932-24.908 8.807-50.449 18.91-68.543 33.102-41.203 32.316-28.764 106.127 25.291 125.768v4.344c0 16.568 13.432 30 30 30s30-13.432 30-30v-1.662c14.779-4.174 26.686-11.717 34.863-20.033 11.619-11.813 11.461-30.805-0.354-42.424-11.809-11.611-30.785-11.457-42.404 0.334-1.674 1.635-10.916 9.34-30.924 3.314-7.988-2.406-10.133-10.688-10.602-13.17-0.975-5.18 0.414-8.672 1.158-9.256 11.314-8.877 32.387-16.984 51.512-23.744z" />
<glyph unicode="&#xf12e;" glyph-name="3770213" d="M750.61 765.63c150.941-7.633 273.39-132.828 273.39-285.63 0-157.701-130.299-286-288-286-45.965 0-90.887 11.076-131.131 31.838l30.188-293.838h36.943c16.568 0 30-13.432 30-30s-13.432-30-30-30h-320c-16.568 0-30 13.432-30 30s13.432 30 30 30h36.943l30.188 293.838c-40.244-20.762-85.166-31.838-131.131-31.838-157.701 0-288 128.299-288 286 0 152.801 122.449 277.998 273.388 285.63 52.68 79.576 142.568 130.369 238.612 130.369s185.93-50.793 238.61-130.369zM512 836c-116.596 0-215.894-91.674-225.268-210.17-10.342-131.465 93.291-242.858 223.236-243.81 101.006-1.045 188.014 64.785 217.51 157.842 46.27 145.975-63.527 296.138-215.478 296.138zM60 480c0-124.617 103.383-226 228-226 50.504 0 99.416 16.891 138.99 47.787 1.154 11.137 0.662 6.398 3.32 32.055-155.514 46.172-241.664 213.75-188.732 367.366-102.43-21.465-181.578-112.494-181.578-221.208zM449.262-68h125.475l-40.232 390.878c-5.646-0.707-26.762-1.424-44.98-0.002 0.201-0.018 0.865 6.65-40.262-390.876zM736 254c124.617 0 228 101.383 228 226 0 108.713-79.148 199.742-181.578 221.208 53.955-157.389-36.701-322.252-188.73-367.366l3.32-32.055c39.572-30.896 88.484-47.787 138.988-47.787zM545.29 637.356c79.070-27.947 69.439-133.107-3.252-159.387v-6.271c0-16.566-13.432-30-30-30-16.566 0-30 13.434-30 30v2.879c-13.818 2.426-26.449 7.598-42.402 18.033-13.865 9.070-17.752 27.662-8.684 41.529 9.070 13.865 27.662 17.752 41.529 8.682 14.623-9.566 19.361-10.313 39.354-10.174 19.301 0.127 26.992 15.277 28.492 24.207 1.348 8.016-0.166 18.678-15.033 23.932-24.908 8.807-50.451 18.91-68.545 33.104-41.201 32.314-28.764 106.125 25.291 125.768v4.344c0 16.568 13.434 30 30 30 16.568 0 30-13.432 30-30v-1.664c14.781-4.174 26.688-11.719 34.865-20.033 11.617-11.813 11.459-30.807-0.354-42.424-11.809-11.613-30.787-11.459-42.404 0.334-1.674 1.633-10.916 9.34-30.924 3.313-7.988-2.406-10.135-10.688-10.604-13.17-0.973-5.18 0.414-8.672 1.158-9.256 11.314-8.875 32.389-16.984 51.512-23.744z" />
<glyph unicode="&#xf12f;" glyph-name="3770214" d="M974.936 292.436c69.9-52.223 64.037-158.635-10.855-202.998l-323.198-190.354c-50.336-29.826-109.82-34.713-162.836-16.145l-237.6 83.154-199.75-76.096c-15.484-5.9-32.816 1.869-38.713 17.354-5.898 15.48 1.869 32.814 17.354 38.713l209.994 79.996c6.613 2.521 13.906 2.621 20.588 0.283l247.954-86.777c37.402-13.098 78.402-9.025 112.494 11.174l323.2 190.354c18.74 11.102 30.424 31.605 30.424 53.469 0 41.51-39.855 71.443-79.873 59.609-1.438-0.426-103.459-23.604-328.478-74.807 18.049-82.721-66.041-150.311-142.834-115.752l-152.693 68.711c-15.109 6.799-21.844 24.557-15.047 39.668 6.799 15.107 24.561 21.846 39.668 15.045l152.693-68.713c28.545-12.844 60.58 8.008 60.58 39.17 0 16.512-9.658 32.117-25.328 39.168l-176.59 79.225c-35.549 15.996-76.201 15.803-111.561-0.518l-142.084-64.654c-15.078-6.865-32.865-0.203-39.729 14.879-6.865 15.082-0.203 32.869 14.879 39.73l141.936 64.586c50.994 23.537 109.783 23.82 161.146 0.705l176.592-79.225c10.008-4.504 19.043-10.506 26.912-17.652l343.902 78.252c37.061 10.637 75.949 3.533 106.854-19.555zM252.010 418.014c-49.623 0-89.996 40.373-89.996 89.998v263.992c0 49.625 40.373 89.998 89.996 89.998h474.578c30.182 20.201 66.441 33.998 105.406 33.998 104.762 0 191.994-87.23 191.994-191.994 0-94.557-71.436-173.193-161.996-187.619v-8.375c0-49.625-40.373-89.998-89.996-89.998h-519.986zM771.996 478.012c16.541 0 29.998 13.459 29.998 30v8.375c-80.785 12.869-144.75 76.836-157.619 157.619h-422.364v-165.994c0-16.541 13.457-30 29.998-30h519.986zM963.99 704.006c0 71.68-60.316 131.996-131.996 131.996s-129.996-60.316-129.996-131.996 58.316-129.996 129.996-129.996 131.996 58.316 131.996 129.996zM252.010 802.002c-16.541 0-29.998-13.457-29.998-29.998v-38h422.366c3.908 24.539 12.525 47.525 24.904 67.998h-417.272zM448.004 606.008c16.568 0 30-13.432 30-29.998 0-16.568-13.432-30-30-30h-127.996c-16.566 0-29.998 13.432-29.998 30 0 16.566 13.432 29.998 29.998 29.998h127.996zM802.784 658.792l-24 24c-11.715 11.715-11.715 30.709 0 42.424 11.715 11.713 30.711 11.713 42.424 0l1.094-1.092 26.916 31.402c10.781 12.58 29.719 14.037 42.299 3.254 12.58-10.781 14.037-29.721 3.254-42.301l-47.998-55.998c-11.371-13.27-31.645-14.033-43.988-1.689z" />
<glyph unicode="&#xf130;" glyph-name="3770215" d="M877.972 672.442c0.035-2.412 0.023-731.888 0.023-740.442 0-33.084-26.916-60-60-60h-611.992c-33.084 0-60 26.916-60 60v903.988c0 33.084 26.916 60 60 60 479.436 0 450.26 0.072 452.588-0.131 4.158-0.359 8.115-1.576 11.561-3.42 5.697-3.064-7.756 7.576 199.049-199.227 5.74-5.887 8.654-13.086 8.771-20.77zM685.998 791.562v-89.572h89.572zM206.002-68h611.992v709.99h-161.998c-16.568 0-30 13.432-30 30v163.998h-419.994v-903.988zM719.998 61.998c16.566 0 30-13.432 30-30s-13.434-30-30-30h-112c-16.566 0-29.998 13.432-29.998 30s13.432 30 29.998 30h112zM719.998 381.994c16.566 0 30-13.432 30-30s-13.434-30-30-30h-415.996c-16.566 0-30 13.432-30 30s13.434 30 30 30h415.996zM719.998 253.996c16.566 0 30-13.432 30-30s-13.434-30-30-30h-415.996c-16.566 0-30 13.432-30 30s13.434 30 30 30h415.996zM393.8 645.348c79.070-27.949 69.438-133.107-3.252-159.389v-6.27c0-16.568-13.432-30-30-30-16.566 0-29.998 13.432-29.998 30v2.877c-13.82 2.426-26.451 7.598-42.404 18.035-13.863 9.068-17.752 27.66-8.682 41.527 9.070 13.865 27.662 17.752 41.527 8.682 14.623-9.566 19.361-10.313 39.354-10.174 19.301 0.127 26.992 15.277 28.492 24.207 1.348 8.016-0.166 18.678-15.035 23.932-24.906 8.807-50.449 18.91-68.543 33.102-41.201 32.316-28.764 106.125 25.293 125.768v4.344c0 16.566 13.432 30 30 30 16.566 0 29.998-13.434 29.998-30v-1.662c14.781-4.174 26.686-11.719 34.863-20.035 11.619-11.811 11.461-30.805-0.354-42.422-11.807-11.613-30.785-11.459-42.402 0.334-1.674 1.633-10.916 9.34-30.924 3.313-7.988-2.404-10.135-10.688-10.602-13.17-0.975-5.18 0.414-8.672 1.156-9.256 11.314-8.875 32.389-16.982 51.512-23.742z" />
<glyph unicode="&#xf131;" glyph-name="3770216" d="M989.966 416.382c0.029-1.996 0.020-6.824 0.018-64.383 0-78.299-63.703-142-142-142-78.299 0-142 63.701-142 142 0 68.6-0.393 66.398 1.045 71.742 0.576 2.168-6.244-17.49 98.668 282.258h-138.254c-7.145-39.398-29.125-74.98-61.459-98.98v-545.020h34c87.121 0 158-72.879 158-160 0-16.568-13.432-30-30-30h-512c-16.568 0-30 13.432-30 30 0 87.121 70.877 160 158 160h34v545.018c-32.332 23.994-54.314 59.578-61.461 98.982h-138.256c106.070-303.060 99.6-282.398 99.697-289.61 0.029-2.693 0.020 13.912 0.020-64.391 0-78.299-63.703-142-142-142-78.299 0-142 63.701-142 142 0 78.303-0.010 61.697 0.020 64.391 0.098 7.314-6.752-14.533 113.666 329.52 3.813 10.918 13.813 18.889 25.555 19.949 2.338 0.217-9.828 0.141 184.018 0.141 14.805 72.793 78.928 130 154.744 130 75.812 0 139.934-57.211 154.742-130 193.957 0 181.674 0.076 184.020-0.141 11.861-1.074 21.758-9.119 25.555-19.949 121.35-346.718 113.574-322.314 113.664-329.528zM917.7 446l-69.715 199.188-69.715-199.188h139.43zM175.986 645.188l-69.717-199.188h139.432zM257.986 352v34h-164v-34c0-45.215 36.785-82 82-82 45.213 0 82 36.785 82 82zM733.29-68c-12.697 39.41-49.725 70-93.303 70h-256c-43.547 0-80.551-30.549-93.279-69.912 109.496-0.039 204.376-0.082 442.582-0.088zM477.986 62h68v517.688c-22.988-5.055-46.52-4.717-68 0v-517.688zM505.202 636.244c56.965-3.926 104.785 41.271 104.785 97.756 0 54.627-43.939 102-98 102-53.959 0-98-47.275-98-102 0-50.682 39.162-94.168 91.215-97.756zM929.986 352v34h-164v-34c0-45.215 36.785-82 82-82 45.213 0 82 36.785 82 82zM541.406 739.86c2.766-14.783-5.143-29.572-20.721-34.559-14.91-4.527-31.986 3.033-37.4 20-4.42 14.525 2.619 31.742 19.98 37.398 16.754 4.994 34.406-5.018 38.141-22.84z" />
<glyph unicode="&#xf132;" glyph-name="3765311" d="M512 768c-16.568 0-30 13.432-30 30v68c0 16.568 13.432 30 30 30s30-13.432 30-30v-68c0-16.568-13.432-30-30-30zM279.020 727.534l-34 58.891c-8.283 14.348-3.367 32.695 10.98 40.98 14.348 8.283 32.695 3.367 40.98-10.98l34-58.891c11.594-20.080-3.076-45.004-25.953-45.004-10.367 0-20.451 5.379-26.008 15.004zM79.576 599.020c-14.348 8.285-19.264 26.633-10.98 40.98 8.283 14.35 26.631 19.268 40.98 10.98l58.891-34c14.348-8.285 19.264-26.633 10.979-40.98-8.283-14.352-26.637-19.262-40.979-10.98zM30 354c-16.568 0-30 13.432-30 30s13.432 30 30 30h68c16.568 0 30-13.432 30-30s-13.432-30-30-30h-68zM896 384c0 16.568 13.432 30 30 30h68c16.568 0 30-13.432 30-30s-13.432-30-30-30h-68c-16.568 0-30 13.432-30 30zM885.534 565.020c-14.34-8.279-32.691-3.375-40.979 10.98-8.285 14.348-3.369 32.695 10.979 40.98l58.891 34c14.348 8.285 32.695 3.367 40.98-10.98 8.283-14.348 3.367-32.695-10.98-40.98zM704 716.554c-14.348 8.283-19.264 26.631-10.98 40.979l34 58.891c8.283 14.35 26.633 19.268 40.98 10.98 14.348-8.285 19.264-26.633 10.98-40.98l-34-58.891c-8.285-14.352-26.639-19.262-40.98-10.979zM875.68 168.641c81.781 0 148.32-66.541 148.32-148.32 0-81.781-66.539-148.32-148.32-148.32h-727.36c-81.781 0-148.32 66.539-148.32 148.32 0 81.779 66.539 148.32 148.32 148.32h8.58c9.119 47 33.061 88.639 66.619 119.979-70.154 198.83 78.375 407.42 288.48 407.42 181.215 0 323.74-157.805 304.040-338.798 40.875-57.148 44.291-130.215 15.4-188.6h44.24zM512 636.040c-162.029 0-280.372-155.137-236.94-311.34 30.26 15.4 64.42 24.041 100.4 24.041 42.34 0 82.859-11.74 117.859-33.66 39.609 105.494 164.93 151.789 263.66 95.48-10.361 126.080-116.281 225.478-244.98 225.478zM875.68-68c48.701 0 88.32 39.619 88.32 88.32 0 48.699-39.619 88.32-88.32 88.32h-103.1c-26.998 0-40.229 33.053-20.721 51.68 52.045 49.779 50.426 130.893 0.68 179.141-75.855 73.688-202.772 24.227-210.578-79.762-1.918-25.51-33.055-37.113-51.182-18.898-30.76 30.898-71.719 47.939-115.318 47.939-85.85 0-156.799-67.080-162.301-152.041-1.020-15.779-14.121-28.059-29.939-28.059h-34.9c-48.701 0-88.32-39.621-88.32-88.32 0-48.701 39.619-88.32 88.32-88.32h727.36z" />
<glyph unicode="&#xf133;" glyph-name="3765312" d="M738.954 432.704c49.9-9.613 87.738-53.604 87.738-106.268 0-53.75-39.387-98.477-90.797-106.838v-7.902c0-48.666-32.984-89.752-77.793-102.074l-62.49-179.148c-27.125-77.74-137.416-78.027-164.967-0.5l-102.496 288.226h-22.605c-59.67 0-108.238 48.549-108.238 108.238 0 52.66 37.838 96.65 87.74 106.264v26.602c0 94.789 58.42 176.178 141.139 210.088-52.334 70.133-2.174 170.891 85.812 170.891 24.291 0 46.707-8.148 64.688-21.836 18.502 5.836 51.857 21.133 65.129 57.764 5.646 15.578 22.85 23.633 38.434 17.988 15.578-5.646 23.633-22.852 17.988-38.432-17.781-49.078-55.627-74.6-85.125-87.508 3.809-10.971 5.908-22.74 5.908-34.994 0-23.92-7.893-46.031-21.203-63.871 82.719-33.91 141.139-115.299 141.139-210.088v-26.602zM464.992 733.264c0-25.92 21.088-47.008 47.010-47.008 25.92 0 47.008 21.088 47.008 47.008 0 25.922-21.088 47.008-47.008 47.008-25.922 0-47.010-21.086-47.010-47.008zM511.998 626.246c-92.051 0-166.941-74.889-166.941-166.941v-24.627h333.884v24.627c0 92.051-74.889 166.941-166.943 166.941zM538.944-49.76l56.328 161.445c-41.436 14.4-71.152 51.672-71.152 106.518h-132.281l95.357-268.124c3.881-10.902 14.262-18.244 25.844-18.244 11.662 0 22.064 7.402 25.904 18.404zM718.454 278.21c26.586 0 48.227 21.645 48.227 48.229s-21.643 48.229-48.229 48.229h-412.904c-26.586 0-48.229-21.645-48.229-48.229s21.643-48.229 48.229-48.229h248.58c16.563 0 30.004-13.422 30.004-30.006v-36.506c0-25.408 20.709-45.867 45.869-45.867 25.303 0 45.887 20.562 45.887 45.867v36.506c0 16.559 13.4 30.006 30.006 30.006h12.561z" />
<glyph unicode="&#xf134;" glyph-name="3765313" d="M1019.096 118.613c7.623-11.752 6.098-27.213-3.674-37.248-272.294-279.644-735.542-278.534-1006.826-0.381-9.658 9.902-11.291 25.123-3.957 36.85 507.296 811.122 397.47 638.18 482.258 764.876 12.137 18.137 39.232 17.68 50.613-1.193 70.809-117.406 42.395-68.889 96.393-164.457 8.32-14.727 2.813-33.414-12.127-41.291-26.113-13.768-42.334-40.078-42.334-68.662 0-39.271 30.473-72.621 70.881-77.576 16.473-2.018 28.178-17.047 26.113-33.506-8.514-67.854 62.736-121.361 129.785-94.023 13.33 5.436 28.652 0.633 36.492-11.451zM510.506 810.128c-43.449-64.934 8.189 16.5-344.608-547.596 184.842-198.752 503.382-200.076 689.772-2.201l-50.875 78.434c-92.521-21.652-183.234 45.066-188.789 137.215-56.578 18.457-96.557 70.812-96.557 131.129 0 40.582 18.107 78.459 48.684 104.4-33.764 59.75-20.621 37.26-57.627 98.619zM68.234 106.381c245.156-233.386 643.662-231.942 887.25 0.064l-66.295 102.207c-207.508-209.284-550.536-207.448-756.124 1.387zM442.064 293.442c16.566 0 29.996-13.43 29.996-29.996v-37.943c0-16.566-13.43-29.996-29.996-29.996s-29.996 13.43-29.996 29.996v37.943c0 16.566 13.43 29.996 29.996 29.996zM614.002 221.358c-16.566 0-29.996 13.428-29.996 29.996v37.945c0 16.564 13.43 29.996 29.996 29.996s29.996-13.432 29.996-29.996v-37.945c0-16.566-13.43-29.996-29.996-29.996zM346.584 309.218c-16.566 0-29.996 13.43-29.996 29.996v37.943c0 16.566 13.43 29.996 29.996 29.996s29.996-13.43 29.996-29.996v-37.943c0-16.566-13.43-29.996-29.996-29.996zM435.55 438.56c-16.566 0-29.996 13.43-29.996 29.996v37.943c0 16.566 13.43 29.996 29.996 29.996 16.564 0 29.996-13.43 29.996-29.996v-37.943c0-16.566-13.432-29.996-29.996-29.996z" />
<glyph unicode="&#xf135;" glyph-name="3765314" d="M1018.43 456.152c31.705-241.52-110.32-473.788-341.056-554.56-323.074-118.293-676.208 133.066-676.208 487.272 0 29.52 3.656 67.49 4.656 69.488 0.992 6.938-4.168-6.832 134.301 304.078v103.592c0 16.557 13.424 29.979 29.979 29.979 16.557 0 29.979-13.422 29.979-29.979v-94.699l124.691-306.276c6.383-14.359-16.016-238.818 187.207-411.23 117.83 99.945 184.959 244.376 184.979 399.838 0 9.074-6.932-9.201 134.689 308.776v103.592c0 16.557 13.422 29.979 29.977 29.979 16.557 0 29.977-13.422 29.979-29.979v-94.699c126.709-313.086 126.301-308.55 126.828-315.17zM741.604 319.812h215.976c0 2.277 8.496 43.895 3.938 103.865l-205.344 0.041c-2.938-58.994-14.035-100.703-14.57-103.906zM891.6 612.322v-128.67c0.016 0 52.363-0.020 52.391-0.020h0.002zM831.646 483.652v131.42l-58.523-131.4zM66.377 319.812h215.976c-0.547 3.285-11.629 44.863-14.57 103.906l-205.344-0.041c-2.641-34.756-1.313-69.736 3.938-103.861v-0.004zM200.080 612.324v-128.672c0.012 0 52.365 0.020 52.377 0.020zM140.123 483.652v131.418l-58.537-131.438 58.537 0.020zM79.746 259.858c63.584-215.424 278.424-357.12 499.88-321.39-143.402 76.582-233.202 189.164-279.726 321.39h-220.154zM667.040-38.371c135.957 51.020 237.262 163.033 277.172 298.228h-220.154c-33.828-96.137-91.439-178.709-162.357-242.172 28.139-17.348 66.051-37.592 105.34-56.057z" />
<glyph unicode="&#xf136;" glyph-name="3765315" d="M512.52 895.994c228.818-0.283 414.886-186.518 414.886-415.402v-47.244c0-96.283-117.656-143.262-184.162-74.213-42.189-43.805-111.934-43.842-154.162 0-12.781-13.271-28.938-23.252-47.082-28.559v-398.576h118c16.568 0 30-13.432 30-30s-13.432-30-30-30h-296c-16.568 0-30 13.432-30 30s13.432 30 30 30h118v398.576c-18.145 5.307-34.301 15.287-47.082 28.559-42.189-43.805-111.934-43.842-154.162 0-19.492-20.238-46.83-32.867-77.080-32.867-59.043 0-107.082 48.039-107.082 107.082v47.244c0 228.892 186.084 415.134 414.916 415.4 0.129 0.002 0.256 0.004 0.385 0.004 0.033 0 0.070 0.002 0.105 0.002h0.088c0.145 0 0.289-0.004 0.432-0.006zM866.152 510.594c-11.082 131.92-94.545 243.562-210.422 295.010 43.1-43.986 75.359-98.57 95.385-162.316 16.902-53.795 21.451-102.371 22.389-132.693h92.648zM310.574 510.594v-0.002h94.68c2.613 134.875 19.896 224.342 38.293 282.126-52.77-40.559-90.574-95.926-112.807-165.469-15.018-46.969-19.197-90.006-20.166-116.656zM512 804.696c-18.863-45.748-43.486-135.203-46.725-294.102h93.449c-3.238 158.898-27.861 248.354-46.725 294.102zM618.746 510.594v0.002h94.68c-0.969 26.65-5.15 69.688-20.166 116.656-22.232 69.543-60.037 124.908-112.807 165.469 18.396-57.787 35.68-147.252 38.293-282.126zM368.27 805.604c-115.877-51.447-199.34-163.090-210.422-295.010h92.648c0.938 30.322 5.486 78.898 22.389 132.693 20.025 63.746 52.285 118.33 95.385 162.316zM203.674 386.268c25.969 0 47.082 21.127 47.082 47.082v17.244h-94.162v-17.244c0-25.961 21.121-47.082 47.080-47.082zM357.838 386.268c25.961 0 47.080 21.121 47.080 47.082v17.244h-94.162v-17.244c0-25.961 21.123-47.082 47.082-47.082zM512 386.268c25.961 0 47.082 21.121 47.082 47.082v17.244h-94.164v-17.244c0-25.961 21.121-47.082 47.082-47.082zM666.162 386.268c25.961 0 47.082 21.121 47.082 47.082v17.244h-94.162v-17.244c0-25.961 21.119-47.082 47.080-47.082zM867.406 433.35v17.244h-94.162v-17.244c0-25.961 21.119-47.082 47.080-47.082 25.969 0 47.082 21.127 47.082 47.082z" />
<glyph unicode="&#xf137;" glyph-name="3765316" d="M810.536 811.654c0-108.346 8.555 33.732-51.266-670.262v-239.392c0-16.568-13.432-30-30-30h-433.8c-16.568 0-30 13.432-30 30v239.376c-62.066 723.036-51.791 568.416-51.791 670.278 0 46.51 37.836 84.346 84.344 84.346h428.168c46.51 0 84.346-37.836 84.346-84.346zM273.676 811.654h-0.002v-35.654h476.86v35.654c0 13.424-10.922 24.346-24.346 24.346h-428.168c-13.424 0-24.344-10.922-24.344-24.346zM711.544 288.394l36.334 427.606h-471.518l36.721-427.758c44.961 61.381 117.539 101.326 199.285 101.326 81.68 0 154.207-39.877 199.178-101.174zM696.864 172.666c-14.395 88.848-91.646 156.902-184.496 156.902-92.848 0-170.102-68.055-184.496-156.902h368.992zM464.642-67.531h95.451v60h-95.451v-60zM699.268-68v180.666h-373.8v-180.666h79.176v90.469c0 16.566 13.432 30 30 30h155.451c16.568 0 30-13.434 30-30v-90.469h79.174zM512.368 475.65c-16.568 0-30 13.432-30 30v51.766c0 16.568 13.434 30 30 30 16.568 0 30-13.432 30-30v-51.766c0-16.568-13.432-30-30-30zM364.118 448.262l-17.705 48.645c-5.666 15.57 2.359 32.785 17.93 38.451 15.57 5.67 32.787-2.359 38.453-17.93l17.705-48.645c5.666-15.568-2.359-32.785-17.93-38.451-15.559-5.666-32.785 2.352-38.453 17.93zM632.424 428.514c-20.76 0-35.314 20.688-28.189 40.27l17.705 48.645c5.668 15.57 22.889 23.596 38.453 17.93 15.57-5.668 23.596-22.881 17.93-38.451l-17.707-48.645c-4.434-12.182-15.939-19.748-28.191-19.748z" />
</font>
</defs>
</svg>
